返回顶部
  • 发帖数3522
  • 粉丝25

此人很懒,什么也没有留下

  • 最佳新人

  • 活跃会员

    经常参与各类话题的讨论,发帖内容较有主见
  • 热心会员

    经常帮助其他会员答疑
  • 灌水之王

    经常在论坛发帖,且发帖量较大
  • 社区劳模

    长期对论坛的繁荣而不断努力,或发帖主题数500以上
  • 终身成就

    为论坛做出突出贡献的会员
  • 明星会员

    在论坛有很高知名度会员
  • 爆料达人

    发帖爆料达人
开启左侧

[犯罪] [2021][误杀2][WebDL-MKV/9.47GB][国语][2160P]

[复制链接]
cede 捐助会员 显示全部楼层 发表于 5 天前 |阅读模式 打印 上一主题 下一主题
be0c92202f0057fa8567817d39f4f0a0.jpg

f5298f1b8ac5b12698cfcd1b0e031b70.jpg

译  名 误杀2
片  名 Fireflies in the Sun
年  代 2021
国  家 止您
类  别 剧情/立功
语  行 汉语一般话
字  幕 中英硬字幕
评  分 5.7/10 from 313,409 users
链  接 https://movie.douban.com/subject/35068653
文件巨细 9.47 GB
片  少 118 Min
导  演 戴朱 Mo Dai
主  演 肖央 Yang Xiao
     纫扬华 Simon Yam
     文幽珊 Janice Man
     陈雨锶 Yusi Chen
     宋洋 Yang Song
     李治廷 Aarif Lee
     张世 Shih Chang
     尹子维 Terence Yin
     姜皓文 Philip Keung
     陈昊 Hao Chen
     周楚濋 Chu-chu Zhou
     王昊泽 Haoze Wang

简介

  林日朗(肖央 饰)取老婆阿玲(文幽珊 饰)、女子小虫(王昊泽 饰)不断过着贫寒但幸运的糊口,曲到女子小虫突收不测慢需救治,几经周合,穷途末路的林日朗为了救女子决议罢休一搏。他订定了一个惊天方案.....

  本片改编自影戏《迫正在眉梢》。

Video
Format                         : HEVC
Format/Info                    : High Efficiency Video Coding
Format profile                 : Main @ L5 @ Main
Codec ID                       : V_MPEGH/ISO/HEVC
Duration                       : 1 h 58 min
Bit rate                       : 11.0 Mb/s
Width                          : 3 840 pixels
Height                         : 1 608 pixels
Display aspect ratio           : 2.40:1
Frame rate mode                : Constant
Frame rate                     : 24.000 FPS
Color space                    : YUV
Chroma subsampling             : 4:2:0
Bit depth                      : 8 bits
Bits/(Pixel*Frame)             : 0.074
Stream size                    : 9.10 GiB (96%)

Audio
Format                         : E-AC-3 JOC
Format/Info                    : Enhanced AC-3 with Joint Object Coding
Commercial name                : Dolby Digital Plus with Dolby Atmos
Codec ID                       : A_EAC3
Duration                       : 1 h 58 min
Bit rate mode                  : Constant
Bit rate                       : 448 kb/s
Channel(s)                     : 6 channels
Channel layout                 : L R C LFE Ls Rs
Sampling rate                  : 48.0 kHz
Frame rate                     : 31.250 FPS (1536 SPF)
Compression mode               : Lossy
Stream size                    : 380 MiB (4%)
Service kind                   : Complete Main
Complexity index               : 16
Number of dynamic objects      : 15
Bed channel count              : 1 channel
Bed channel configuration      : LFE

截图

4524648d35a76c99c3d2ceae88d36236.jpg

旅客,假如您要检察本帖躲藏内容请复兴




上一篇:[2021] [反贪风暴5:最终章][WEB-MKV/2.3G][国粤双语中字][1080p]
下一篇:[新古惑仔之少年激斗篇][HD-MKV/6.32G][国粤双语/中英双字][1080P]

精彩评论2

微信_33b6b25358 首发新人 显示全部楼层 发表于 4 天前
感谢楼主分享!
您需要登录后才可以回帖 登录 | 立即注册 用百度帐号登录

本版积分规则

首发之家社区成立于2011年3月,内容涉及3C家电、数码生活智能电视,股票软件,4K,体育,软件,教育,游戏等资源指标公式论坛。
  • 官方手机版

  • 抖音号

  • 商务合作

  • Powered by Discuz! X3.4 | Copyright © 2011-2021, Tencent Cloud. | 首发之家社区
  • |网站地图 | mp4d@qq.com|小黑屋|手机版|