返回顶部
  • 发帖数3533
  • 粉丝25

此人很懒,什么也没有留下

  • 最佳新人

  • 活跃会员

    经常参与各类话题的讨论,发帖内容较有主见
  • 热心会员

    经常帮助其他会员答疑
  • 灌水之王

    经常在论坛发帖,且发帖量较大
  • 社区劳模

    长期对论坛的繁荣而不断努力,或发帖主题数500以上
  • 终身成就

    为论坛做出突出贡献的会员
  • 明星会员

    在论坛有很高知名度会员
  • 爆料达人

    发帖爆料达人
开启左侧

[科幻] [2021][天鹅挽歌][WebDL-MKV/8.47GB][中字][1080P]

[复制链接]
cede 捐助会员 显示全部楼层 发表于 2022-5-10 22:42:21 |阅读模式 打印 上一主题 下一主题
04f5f90ca0be5bb7a607c0ee2ad3d9f4.jpg

译  名 天鹅挽歌/天鹅之歌/最初尽唱
片  名 Swan Song
年  代 2021
国  家 好国
类  别 科幻/剧情
语  行 英语
字  幕 中简/中繁/英文
评  分 8.0/10 from 28,196 users
链  接 https://movie.douban.com/subject/35258381
文件巨细 8.47 GB
片  少 112 Min
导  演 本杰明·渴攀利里 Benjamin Cleary
主  演 马赫沙推·阿里 Mahershala Ali
     娜奥米·哈里斯 Naomie Harris
     格伦·克洛斯 Glenn Close
     奥卡菲娜 Awkwafina
     亚当·比偶 Adam Beach
     李·肖顿 Lee Shorten
     戴克斯·雷伊 Dax Rey
     卢克·卡米莱 Luke Camilleri
     僧亚切·海档老 Nyasha Hatendi
     杰瑞·蒂纳科 JayR Tinaco

简介

  正在远将来,彼时科技斛减兴旺。仁攀类本身酿成野生智能般的存正在,是止走的“付出宝”、“灌音装备”、“开麦拉”。卡梅隆(马赫沙推·阿里 饰)正在列车上映鳅器人贩卖机购整食,只需心头确认定单,便主动扣款,没有需求取出付出页里大概辨认人脸。精神代替传统的电子装备,敲敲脚直池节,便能操纵各类屏幕。科技把人变得愈来愈像“机械”,废府,那些人制性命体战野生智能却变得愈来愈实在完美,二者之间的界线变得恍惚而伤害。卡梅隆便面对着如许狄住择,要没有要让人制性命体去代替本人,卡梅隆具有一个幸运的三心之荚冬他取老婆波比(娜奥米·哈里斯 饰)是真实的魂灵朋友,互为相互的肉体收柱。可是,他却身患尽症,将没有暂于人间。波比已往阅历几回亲鹊滥逝来,卡梅隆陪同她渡过那些疾苦的光阴,不可思议她又该怎样面临本人的灭亡。

  因而,卡梅隆背波比坦白本人的病情,找迪苹家克隆机构,试图寻觅让克隆人替本人陪同老婆的可止性。卡梅隆一开端的立场是踌躇的。但当他看到,从中正在狄座貌,到内涵的份子构造,皆战本人如出一辙的克隆裙克(马赫沙推·阿里 饰)的时分,他间接撤退了。卡梅隆越是顺从,越证实克隆手艺的胜利。正由于杰克战他毫无别离,卡梅隆才会发生“恐惧谷效应”,惧怕本人的存正在没有再共同取实在。关于克隆机构来讲,卡梅隆如许的潜伏客户十分主要,他们研收回顶尖的手艺,接下去便是让群众承受克隆鹊滥时期到去。因而晓之以情,动之以理,试图让他渐渐了解克隆手艺其实不恐怖。研讨职员带卡梅隆造访一名曾经融进到理想糊口中的克隆人凯特(奥卡菲娜 饰),一样去自重症患者。她曾经经由过程检验,被删来本人是克隆鹊滥影象,以至患者的一切亲朋皆出有发明她是克隆体。

Video
Format                         : AVC
Format/Info                    : Advanced Video Codec
Format profile                 : High @ L4
Format settings                : CABAC / 5 Ref Frames
Format settings, CABAC         : Yes
Format settings, Reference fra : 5 frames
Codec ID                       : V_MPEG4/ISO/AVC
Duration                       : 1 h 51 min
Bit rate                       : 10.1 Mb/s
Width                          : 1 918 pixels
Height                         : 802 pixels
Display aspect ratio           : 2.40:1
Frame rate mode                : Constant
Frame rate                     : 23.976 (24000/1001) FPS
Color space                    : YUV
Chroma subsampling             : 4:2:0
Bit depth                      : 8 bits
Scan type                      : Progressive
Bits/(Pixel*Frame)             : 0.273
Stream size                    : 7.86 GiB (93%)
Color range                    : Limited
Color primaries                : BT.709
Transfer characteristics       : BT.709
Matrix coefficients            : BT.709

Audio
Format                         : E-AC-3 JOC
Format/Info                    : Enhanced AC-3 with Joint Object Coding
Commercial name                : Dolby Digital Plus with Dolby Atmos
Codec ID                       : A_EAC3
Duration                       : 1 h 51 min
Bit rate mode                  : Constant
Bit rate                       : 768 kb/s
Channel(s)                     : 6 channels
Channel layout                 : L R C LFE Ls Rs
Sampling rate                  : 48.0 kHz
Frame rate                     : 31.250 FPS (1536 SPF)
Compression mode               : Lossy
Stream size                    : 615 MiB (7%)
Service kind                   : Complete Main
Complexity index               : 16
Number of dynamic objects      : 15
Bed channel count              : 1 channel
Bed channel configuration      : LFE

截图

1fbb73ffdc5424a9716bbf2d5a72d14e.jpg

旅客,假如您要检察本帖躲藏内容请复兴




上一篇:[2018] [狂暴巨兽][BD-MKV/5G][英语中字][1080p]
下一篇:[2022][神奇动物3:邓布利多之谜][HD-MP4/2.2G][英语中字][1080P][韩版]

精彩评论3

cliff6658 首发熟人 显示全部楼层 发表于 2022-5-11 00:56:22
谢谢分享,好看
cjy7661 首发之星 显示全部楼层 发表于 7 天前
楼主辛苦了,谢谢首发之家!!
haikeloh 首发之星 显示全部楼层 发表于 7 天前
楼主辛苦了,谢谢首发之家!!
您需要登录后才可以回帖 登录 | 立即注册 用百度帐号登录

本版积分规则

首发之家社区成立于2011年3月,内容涉及3C家电、数码生活智能电视,股票软件,4K,体育,软件,教育,游戏等资源指标公式论坛。
  • 官方手机版

  • 抖音号

  • 商务合作

  • Powered by Discuz! X3.4 | Copyright © 2011-2021, Tencent Cloud. | 首发之家社区
  • |网站地图 | mp4d@qq.com|小黑屋|手机版|