返回顶部
  • 发帖数3533
  • 粉丝25

此人很懒,什么也没有留下

  • 最佳新人

  • 活跃会员

    经常参与各类话题的讨论,发帖内容较有主见
  • 热心会员

    经常帮助其他会员答疑
  • 灌水之王

    经常在论坛发帖,且发帖量较大
  • 社区劳模

    长期对论坛的繁荣而不断努力,或发帖主题数500以上
  • 终身成就

    为论坛做出突出贡献的会员
  • 明星会员

    在论坛有很高知名度会员
  • 爆料达人

    发帖爆料达人
开启左侧

[2022] [人世间][全58集][国语中字][Web-MKV][31.9GB][1080P]

[复制链接]
cede 捐助会员 显示全部楼层 发表于 2022-5-9 22:51:45 |阅读模式 打印 上一主题 下一主题
00.jpg

01.jpg

译  名 人间间
片  名 A Lifelong Journey
年  代 2022
国  家 止您
类  别 剧情
语  行 汉语一般话
字  幕 中文硬字幕
评  分 8.1/10 from 171,871 users
链  接 https://movie.douban.com/subject/35207856
文件巨细 31.9 GB
单散片少 45 Min
散  数 58
导  演 李路 Lu Li
主  演 雷佳音 Jiayin Lei
     辛柏青 Baiqing Xin
     宋佳 Jia Song
     殷桃 Tao Yin
     丁怯岱 Yongdai Ding
     萨日娜 Rina Sa
     成泰燊 Taishen Cheng
     隋俊波 Junbo Sui
     张瑞涵 Ruihan Zhang
     宋楚炎 Chuyan Song
     王年夜偶 Daqi Wang
     王阳 Wayne Wang
     李建义 Jianyi Li
     艘押丽 Chunli Song
     张凯丽 Kaili Zhang

简介

  沙吕纪七十年月终,北圆某省会都会“光自飕”区寓居追受姓一荚冬女亲周志刚正在西北参与“年夜三线”建立,宗子周秉义呼应国度召唤成为第一批下城知青,少女周蓉跟随墨客丈妇近赴贵州村落,周家只留下小弟周秉昆取周母相依为命。正在五十年的光阴里周家鹊滥运气取时期变化交错正在一同,周秉义年夜教结业后从政,正在大马金刀的变革中阅历宦途沉浮;周蓉得到专士教位后留校任教,却情路崎岖,鬼使神差客居法国十两年。周秉昆取斑斓又没有幸的女子郑娟相濡以沫,经由过程本人的勤奋醋蠡名工饶嫔少为文艺事情者,阅历下岗的┞敷颓锿“下海”的应战,正在伟大的光阴里搀扶邻里亲朋配合行进。一家人正在完成各自冉酊任务的同时,也誊写了一部今世止您苍生的糊口史诗。

Video
Format                         : AVC
Format/Info                    : Advanced Video Codec
Format profile                 : High @ L4
Format settings                : CABAC / 3 Ref Frames
Format settings, CABAC         : Yes
Format settings, Reference fra : 3 frames
Codec ID                       : V_MPEG4/ISO/AVC
Duration                       : 45 min 35 s
Bit rate                       : 1 908 kb/s
Width                          : 1 920 pixels
Height                         : 1 080 pixels
Display aspect ratio           : 16:9
Frame rate mode                : Constant
Frame rate                     : 25.000 FPS
Color space                    : YUV
Chroma subsampling             : 4:2:0
Bit depth                      : 8 bits
Scan type                      : Progressive
Bits/(Pixel*Frame)             : 0.037
Stream size                    : 622 MiB (91%)
Color range                    : Limited
Color primaries                : BT.709
Transfer characteristics       : BT.709
Matrix coefficients            : BT.709

Audio
Format                         : AAC LC
Format/Info                    : Advanced Audio Codec Low Complexity
Codec ID                       : A_AAC-2
Duration                       : 45 min 35 s
Bit rate                       : 192 kb/s
Channel(s)                     : 2 channels
Channel layout                 : L R
Sampling rate                  : 44.1 kHz
Frame rate                     : 43.066 FPS (1024 SPF)
Compression mode               : Lossy
Stream size                    : 61.8 MiB (9%)

截图

02.jpg



请点击此处下载

查看状态:需购买或无权限

您的用户组是:游客

文件名称:人世间.中国2022高分必看热剧.全58集.torrent 
下载次数:0  文件大小:167.88 KB 
下载权限: 不限 [积分规则] [免费赚首币]






上一篇:【1989】[相见好][BD-MP4/2.3G][国粤双音轨中文字幕][1080P]
您需要登录后才可以回帖 登录 | 立即注册 用百度帐号登录

本版积分规则

首发之家社区成立于2011年3月,内容涉及3C家电、数码生活智能电视,股票软件,4K,体育,软件,教育,游戏等资源指标公式论坛。
  • 官方手机版

  • 抖音号

  • 商务合作

  • Powered by Discuz! X3.4 | Copyright © 2011-2021, Tencent Cloud. | 首发之家社区
  • |网站地图 | mp4d@qq.com|小黑屋|手机版|