返回顶部
  • 发帖数3528
  • 粉丝25

此人很懒,什么也没有留下

  • 最佳新人

  • 活跃会员

    经常参与各类话题的讨论,发帖内容较有主见
  • 热心会员

    经常帮助其他会员答疑
  • 灌水之王

    经常在论坛发帖,且发帖量较大
  • 社区劳模

    长期对论坛的繁荣而不断努力,或发帖主题数500以上
  • 终身成就

    为论坛做出突出贡献的会员
  • 明星会员

    在论坛有很高知名度会员
  • 爆料达人

    发帖爆料达人
开启左侧

[喜剧] [2022] [东北告别天团][WebDL-MKV/1.34GB][国语][2160P]

[复制链接]
cede 捐助会员 显示全部楼层 发表于 2022-5-6 23:23:59 |阅读模式 打印 上一主题 下一主题
1f5a8aa6f19dc18e56a572c569c03f94.jpg

8ec243daee9f15a62eedc1b6f0e2255b.jpg

译  名 东北辞别天团
片  名 Goodbye
年  代 2022
国  家 止您
类  别 笑剧/剧情
语  行 汉语一般话
字  幕 中文硬字幕
评  分 5.9/10 from 11,865 users
链  接 https://movie.douban.com/subject/35871767
文件巨细 1.34 GB
片  少 95 Min
导  演 崔志佳 Zhijia Cui
主  演 崔志佳 Zhijia Cui
     宋晓峰 Xiaofeng Song
     张琪 Qi Zhang
     刁彪 Biao Diao
     李昆鹰 Kunying Li
     于洋 Yang Yu
     孙越 Yue Sun
     梁龙 Long Liang
     赵海燕 Haiyan Zhao
     杖佑栋 Zi-Dong Zhang
     韩彦专 Yanbo Han

简介

  范年夜大白(崔志佳 饰)正在东北处置着黑事止业,不同凡响的是,范年夜大白情愿采取刑谦开释的人,为他们供给事情时机。那一天,一位叫做牛结实(宋晓峰 饰)的汉子去到店里,扔出了奢华年夜单——三百万的葬礼,范年夜大白及团队惊奇没有已……正在办葬礼的过程当中,范年夜大白战牛结实才发明,本来两人之间的渊源没有行云云……

Video
Format                         : HEVC
Format/Info                    : High Efficiency Video Coding
Format profile                 : Main @ L5 @ Main
Codec ID                       : V_MPEGH/ISO/HEVC
Duration                       : 1 h 35 min
Bit rate                       : 1 897 kb/s
Width                          : 3 840 pixels
Height                         : 1 626 pixels
Display aspect ratio           : 2.35:1
Frame rate mode                : Constant
Frame rate                     : 24.000 FPS
Color space                    : YUV
Chroma subsampling             : 4:2:0
Bit depth                      : 8 bits
Bits/(Pixel*Frame)             : 0.013
Stream size                    : 1.26 GiB (94%)
Color range                    : Limited
Color primaries                : BT.709
Transfer characteristics       : BT.709
Matrix coefficients            : BT.709

Audio
Format                         : AAC LC
Format/Info                    : Advanced Audio Codec Low Complexity
Codec ID                       : A_AAC-2
Duration                       : 1 h 35 min
Bit rate                       : 125 kb/s
Channel(s)                     : 2 channels
Channel layout                 : L R
Sampling rate                  : 48.0 kHz
Frame rate                     : 46.875 FPS (1024 SPF)
Compression mode               : Lossy
Stream size                    : 85.2 MiB (6%)

截图

cffd3293760146f4ddd0660945e7e59e.jpg

旅客,假如您要检察本帖躲藏内容请复兴




上一篇:[2022][东北告别天团][WebDL-MKV/1.34GB][国语][2160P]
下一篇:[2021] [反贪风暴5:最终章][WEB-MKV/2.3G][国粤双语中字][1080p]

精彩评论3

wei1010 首发之星 显示全部楼层 发表于 2022-5-7 12:28:19
楼主辛苦了,谢谢首发之家!!
风中小子 捐助会员 显示全部楼层 发表于 2022-5-7 14:08:08
高清资源共享区›首发国产资源›[2022] [东北告别天团][WebDL-MK ...›参与/回复主题

RE: [2022] [东北告别天团][WebDL-MKV/1.34GB][国语][2160P] [[url=]修改[/url]]











wei1010 首发之星 显示全部楼层 发表于 2022-5-7 19:42:17
奇异博士2:疯狂多元宇宙
您需要登录后才可以回帖 登录 | 立即注册 用百度帐号登录

本版积分规则

首发之家社区成立于2011年3月,内容涉及3C家电、数码生活智能电视,股票软件,4K,体育,软件,教育,游戏等资源指标公式论坛。
  • 官方手机版

  • 抖音号

  • 商务合作

  • Powered by Discuz! X3.4 | Copyright © 2011-2021, Tencent Cloud. | 首发之家社区
  • |网站地图 | mp4d@qq.com|小黑屋|手机版|