返回顶部
  • 发帖数3533
  • 粉丝25

此人很懒,什么也没有留下

  • 最佳新人

  • 活跃会员

    经常参与各类话题的讨论,发帖内容较有主见
  • 热心会员

    经常帮助其他会员答疑
  • 灌水之王

    经常在论坛发帖,且发帖量较大
  • 社区劳模

    长期对论坛的繁荣而不断努力,或发帖主题数500以上
  • 终身成就

    为论坛做出突出贡献的会员
  • 明星会员

    在论坛有很高知名度会员
  • 爆料达人

    发帖爆料达人
开启左侧

[剧情] [2022][奇迹笨小孩][WebDL-MKV/5.67GB][国语][2160P]

[复制链接]
cede 捐助会员 显示全部楼层 发表于 2022-4-24 23:48:43 |阅读模式 打印 上一主题 下一主题
4bd64d3a798ba79c34965a58d975e45f.jpg

3c0392b8eb6261cf003c8cc8d8a4ecc5.jpg

译  名 奇观·笨小孩/奇观/奇观年月
片  名 Nice View
年  代 2022
国  家 止您
类  别 剧情
语  行 汉语一般话
字  幕 中文硬字幕
评  分 7.4/10 from 388,051 users
链  接 https://movie.douban.com/subject/35312437
文件巨细 5.67 GB
片  少 106 Min
导  演 文牧家 Muye Wen
主  演 易烊千玺 Jackson Yee
     田雨 Yu Tian
     陈哈琳 Halin Chen
     齐溪 Xi Qi
     公磊 Lei Gong
     许君聪 Juncong Xu
     王宁 Ning Wang
     黄尧 Yao Huang
     巩金国 Jinguo Gong
     田壮壮 Zhuangzhuang Tian
     王传君 Chuanjun Wang

简介

  两十岁的景浩(易烊千玺 饰)单独带着年幼的mm去的深圳糊口,兄妹俩糊口温馨却宽裕。为了mm昂扬的脚术费,机遇偶合之下,景浩获得一个时机,本觉得美妙糊口行将降临,却不意遭受重创。正在工夫战款项的两重压力下,毫无退路的景浩决议背注一掷,而他堕入窘境的伟大冉酊,又可否燃起期望的水花?

  影戏《奇观》是种果部国度影戏局2021年重面影戏项目,也是2021年重面建党百年献礼片,形貌十八年夜当前新时期年青人正在深圳创业的影片。

Video
Format                         : HEVC
Format/Info                    : High Efficiency Video Coding
Format profile                 : Main 10 @ L5.1 @ Main
Codec ID                       : V_MPEGH/ISO/HEVC
Duration                       : 1 h 46 min
Bit rate                       : 7 270 kb/s
Width                          : 3 840 pixels
Height                         : 2 072 pixels
Display aspect ratio           : 1.85:1
Frame rate mode                : Constant
Frame rate                     : 60.000 FPS
Color space                    : YUV
Chroma subsampling             : 4:2:0
Bit depth                      : 10 bits
Bits/(Pixel*Frame)             : 0.015
Stream size                    : 5.39 GiB (95%)
Color range                    : Limited
Color primaries                : BT.709
Transfer characteristics       : BT.709
Matrix coefficients            : BT.709

Audio
Format                         : E-AC-3
Format/Info                    : Enhanced AC-3
Commercial name                : Dolby Digital Plus
Codec ID                       : A_EAC3
Duration                       : 1 h 46 min
Bit rate mode                  : Constant
Bit rate                       : 384 kb/s
Channel(s)                     : 6 channels
Channel layout                 : L R C LFE Ls Rs
Sampling rate                  : 48.0 kHz
Frame rate                     : 31.250 FPS (1536 SPF)
Compression mode               : Lossy
Delay relative to video        : 24 ms
Stream size                    : 291 MiB (5%)
Service kind                   : Complete Main

截图

be5b37f48d050b4f17b9e964932b308e.jpg

旅客,假如您要检察本帖躲藏内容请复兴




上一篇:[2022][熊出没重返地球][WebDL-MKV/7.42GB][国语][2160P]
下一篇:[2022] [长津湖之水门桥][WEB-MKV/7.42GB][国语配音/中文字幕][1080P]

精彩评论7

yuanhengguan 首发之星 显示全部楼层 发表于 2022-4-25 14:15:13
楼主辛苦了,谢谢首发之家!!
010101010 首发之星 显示全部楼层 发表于 2022-4-25 21:11:47
谢谢楼主的分享
我喜欢
jjopy 首发新人 显示全部楼层 发表于 2022-4-25 21:50:34
RE: [2022][奇迹笨小孩][WebDL-MKV/5.67GB][国语][2160P] [[url=]修改[/url]
hejiemac 高级首粉 显示全部楼层 发表于 2022-4-25 21:55:39
谢谢楼主分享!
13371392400 首发熟人 显示全部楼层 发表于 2022-5-4 19:50:02
七个世界,一个星球
七个世界,一个星球
七个世界,一个星球

buhuai2006 首发新人 显示全部楼层 发表于 7 天前
RE: [2022][奇迹笨小孩][WebDL-MKV/5.67GB][国语][2160P] [[url=]修改[/url]]








6419609 首发熟人 显示全部楼层 发表于 5 天前
是打算大所多
您需要登录后才可以回帖 登录 | 立即注册 用百度帐号登录

本版积分规则

首发之家社区成立于2011年3月,内容涉及3C家电、数码生活智能电视,股票软件,4K,体育,软件,教育,游戏等资源指标公式论坛。
  • 官方手机版

  • 抖音号

  • 商务合作

  • Powered by Discuz! X3.4 | Copyright © 2011-2021, Tencent Cloud. | 首发之家社区
  • |网站地图 | mp4d@qq.com|小黑屋|手机版|