返回顶部
  • 发帖数3576
  • 粉丝25

此人很懒,什么也没有留下

  • 最佳新人

  • 活跃会员

    经常参与各类话题的讨论,发帖内容较有主见
  • 热心会员

    经常帮助其他会员答疑
  • 灌水之王

    经常在论坛发帖,且发帖量较大
  • 社区劳模

    长期对论坛的繁荣而不断努力,或发帖主题数500以上
  • 终身成就

    为论坛做出突出贡献的会员
  • 明星会员

    在论坛有很高知名度会员
  • 爆料达人

    发帖爆料达人
开启左侧

[喜剧] [2022][熊出没重返地球][WebDL-MKV/7.42GB][国语][2160P]

[复制链接]
cede 捐助会员 显示全部楼层 发表于 2022-4-24 23:48:00 |阅读模式 打印 上一主题 下一主题
79a4956451b52a6a20346ee3799d4c3f.jpg

97ee9eae430e98506c0bbcc0760c33e4.jpg

译  名 熊出出·重返天球/熊出出年夜影戏8
片  名 Boonie Bears: Back to Earth
年  代 2022
国  家 止您
类  别 动绘/笑剧/科幻
语  行 汉语一般话
字  幕 中文硬字幕
评  分 6.5/10 from 20,999 users
链  接 https://movie.douban.com/subject/35377026
文件巨细 7.42 GB
片  少 99 Min
导  演 林汇达 Huida Lin
主  演 张秉君 Bingjun Zhang
     李婉瑶 Wanyao Li
     张伟 Wei Zhang
     谭笑 Xiao Tan
     程子洋 Ziyang Cheng
     刘思偶 Siqi Liu

简介

  有面懒又有面馋的熊两固然老是各类得误出错,心里却不断胡想成为一名豪杰,以此得到各人出格史徵哥熊年夜的承认。

  一块中械镰旱滥坠降突破了狗熊岭的安静冷静僻静,熊两不测的取中械镰核开体,成了具有中星聪慧能量的熊!随之而去的是“中星人】孩布的劫掠。阿布为了夺回本核,成心制作事端,让熊两孤家寡人。便正在阿布将要胜利的时分,一收奥秘下科技军团的进犯完全挨治了方案,招致熊强组开以至全部天球于宏大的危易当中。

  阿布躲藏的身份和去到天球的┞锋正目标究竟是甚么?奥秘的下科技军团背后有何以事?安于现状的熊两可否抖擞起去完成他的豪杰梦?他们可否援救天球的危急?

Video
Format                         : AVC
Format/Info                    : Advanced Video Codec
Format profile                 : High @ L5.1
Format settings                : CABAC / 4 Ref Frames
Format settings, CABAC         : Yes
Format settings, Reference fra : 4 frames
Codec ID                       : V_MPEG4/ISO/AVC
Duration                       : 1 h 39 min
Bit rate                       : 10.5 Mb/s
Width                          : 3 840 pixels
Height                         : 2 160 pixels
Display aspect ratio           : 16:9
Frame rate mode                : Constant
Frame rate                     : 25.000 FPS
Color space                    : YUV
Chroma subsampling             : 4:2:0
Bit depth                      : 8 bits
Scan type                      : Progressive
Bits/(Pixel*Frame)             : 0.051
Stream size                    : 7.29 GiB (98%)

Audio
Format                         : AAC LC
Format/Info                    : Advanced Audio Codec Low Complexity
Codec ID                       : A_AAC-2
Duration                       : 1 h 39 min
Bit rate                       : 192 kb/s
Channel(s)                     : 2 channels
Channel layout                 : L R
Sampling rate                  : 44.1 kHz
Frame rate                     : 43.066 FPS (1024 SPF)
Compression mode               : Lossy
Stream size                    : 135 MiB (2%)

截图

cacbff912cb915f52c5142beb7e071fe.jpg

旅客,假如您要检察本帖躲藏内容请复兴




上一篇:[2021][误杀2][WEB-MKV/2G][国语中字][1080p]
下一篇:[2022][奇迹笨小孩][WebDL-MKV/5.67GB][国语][2160P]

精彩评论4

smileho 首发熟人 显示全部楼层 发表于 2022-4-29 18:48:06
楼主辛苦了,谢谢首发之家!!
bingwater 首发熟人 显示全部楼层 发表于 2022-4-30 12:25:13
感谢楼主分享
kkdy 高级首粉 显示全部楼层 发表于 2022-4-30 13:18:51
首发之家不能没有像楼主这样的人才!
xc11151511 首发熟人 显示全部楼层 发表于 2022-5-15 15:27:39
感谢楼主分享!
您需要登录后才可以回帖 登录 | 立即注册 用百度帐号登录

本版积分规则

首发之家社区成立于2011年3月,内容涉及3C家电、数码生活智能电视,股票软件,4K,体育,软件,教育,游戏等资源指标公式论坛。
  • 官方手机版

  • 抖音号

  • 商务合作

  • Powered by Discuz! X3.4 | Copyright © 2011-2021, Tencent Cloud. | 首发之家社区
  • |网站地图 | mp4d@qq.com|小黑屋|手机版|