返回顶部
  • 发帖数3522
  • 粉丝25

此人很懒,什么也没有留下

  • 最佳新人

  • 活跃会员

    经常参与各类话题的讨论,发帖内容较有主见
  • 热心会员

    经常帮助其他会员答疑
  • 灌水之王

    经常在论坛发帖,且发帖量较大
  • 社区劳模

    长期对论坛的繁荣而不断努力,或发帖主题数500以上
  • 终身成就

    为论坛做出突出贡献的会员
  • 明星会员

    在论坛有很高知名度会员
  • 爆料达人

    发帖爆料达人
开启左侧

[动作] [2022] [神秘海域][WebDL-MKV/10.0GB][中字][2160P]

[复制链接]
cede 捐助会员 显示全部楼层 发表于 2022-4-23 22:55:29 |阅读模式 打印 上一主题 下一主题
b5dd1fdbad86d0512c68ebbd3c18e235.jpg

9e591bce683be5ad129d1fb9323a67a9.jpg

译  名 奥秘海疆/秘境探险(港/台)/奥秘海疆@月雷克船主的宝躲
片  名 Uncharted
年  代 2022
国  家 好国
类  别 行动/冒险
语  行 英语/西班牙语
字  幕 中简/中繁/英语
评  分 6.3/10 from 40,912 users
链  接 https://movie.douban.com/subject/3822687
文件巨细 10.0 GB
片  少 116 Min
导  演 鲁本·弗雷斯彻 Ruben Fleischer
主  演 汤姆·赫兰德 Tom Holland
     马克·沃我伯格 Mark Wahlberg
     索放极·阿里 Sophia Ali
     塔蒂·减布里埃 Tati Gabrielle
     安东僧奥·班德推斯 Antonio Banderas
     史蒂芬·威丁顿 Steven Waddington
     乔治娅·古德曼 Georgia Goodman
     迪我梅德·默塔 Diarmaid Murtagh
     约瑟妇·巴德推玛 Joseph Balderrama
     阿推挠毪专登 Alana Boden
     罗伯特‧马瑟 Robert Maaser

简介

  神机妙算的内森·德雷克(汤姆·赫兰德 饰)战经历丰硕狄装宝者维克多·苏利文(马克·沃我伯格 饰)构成伙伴,追随费迪北·麦哲伦500年前丢失的宝躲。一开端,那仿佛只史狯简朴狄装宝事情,但很快演化成了一场危险刺激、高出环球的比赛。他们必需敢无情无义的受卡达(安东僧奥·班德推斯 饰)之前觅得宝躲。受卡达深信他战他的家属才是宝躲的┞俘当担当人。若内森战苏利文能破译线索,解开那天下上最陈腐的谜团,他们便能找到代价50亿美圆的宝躲,以至借能够找到内森失落已暂的哥哥……但起首,他们必需教会共同努力。

Video
Format                         : HEVC
Format/Info                    : High Efficiency Video Coding
Format profile                 : Main 10 @ L5 @ High
Codec ID                       : V_MPEGH/ISO/HEVC
Duration                       : 1 h 56 min
Bit rate                       : 12.0 Mb/s
Width                          : 3 840 pixels
Height                         : 1 580 pixels
Display aspect ratio           : 2.40:1
Frame rate mode                : Constant
Frame rate                     : 23.976 (23976/1000) FPS
Color space                    : YUV
Chroma subsampling             : 4:2:0
Bit depth                      : 10 bits
Bits/(Pixel*Frame)             : 0.082
Stream size                    : 9.71 GiB (97%)
Color range                    : Limited
Color primaries                : BT.709
Transfer characteristics       : BT.709
Matrix coefficients            : BT.709

Audio
Format                         : AC-3
Format/Info                    : Audio Coding 3
Commercial name                : Dolby Digital
Codec ID                       : A_AC3
Duration                       : 1 h 55 min
Bit rate mode                  : Constant
Bit rate                       : 384 kb/s
Channel(s)                     : 6 channels
Channel layout                 : L R C LFE Ls Rs
Sampling rate                  : 48.0 kHz
Frame rate                     : 31.250 FPS (1536 SPF)
Compression mode               : Lossy
Stream size                    : 318 MiB (3%)
Service kind                   : Complete Main

截图

ed5eeb0858a32cf34bec37bc2edd63b8.jpg

旅客,假如您要检察本帖躲藏内容请复兴




上一篇:[2021] [牧羊人][BD-MKV/2G][英语中字][1080p]
下一篇:[2022][尼罗河上的惨案][BD-MKV/5.5G][英语中字][1080p]

精彩评论22

wzqq1994 首发熟人 显示全部楼层 发表于 2022-4-23 23:46:16
111111111111111111111111111111
lijie113 捐助会员 显示全部楼层 发表于 2022-4-24 01:02:58
我要看我要看
xscxsc000 首发之星 显示全部楼层 发表于 2022-4-24 01:06:11
楼主辛苦了,谢谢首发之家!!
15527527 首发熟人 显示全部楼层 发表于 2022-4-24 01:57:05
楼主辛苦了,谢谢首发之家!!
jk439 高级首粉 显示全部楼层 发表于 2022-4-24 07:39:44
瞅瞅先瞅瞅先瞅瞅先瞅瞅先瞅瞅先瞅瞅先瞅瞅先瞅瞅先瞅瞅先
haikeloh 首发之星 显示全部楼层 发表于 2022-4-24 09:06:11
楼主辛苦了,谢谢首发之家!!
wangjunchaozi 首发之星 显示全部楼层 发表于 2022-4-24 09:08:11
楼主辛苦了,谢谢首发之家!!
cjy7661 首发之星 显示全部楼层 发表于 2022-4-24 13:08:51
楼主辛苦了,谢谢首发之家!!
微信_a6ded0e02b 首发新人 显示全部楼层 发表于 2022-4-24 14:08:20
下载看看,多谢分享

您需要登录后才可以回帖 登录 | 立即注册 用百度帐号登录

本版积分规则

首发之家社区成立于2011年3月,内容涉及3C家电、数码生活智能电视,股票软件,4K,体育,软件,教育,游戏等资源指标公式论坛。
  • 官方手机版

  • 抖音号

  • 商务合作

  • Powered by Discuz! X3.4 | Copyright © 2011-2021, Tencent Cloud. | 首发之家社区
  • |网站地图 | mp4d@qq.com|小黑屋|手机版|