返回顶部
  • 发帖数3528
  • 粉丝25

此人很懒,什么也没有留下

  • 最佳新人

  • 活跃会员

    经常参与各类话题的讨论,发帖内容较有主见
  • 热心会员

    经常帮助其他会员答疑
  • 灌水之王

    经常在论坛发帖,且发帖量较大
  • 社区劳模

    长期对论坛的繁荣而不断努力,或发帖主题数500以上
  • 终身成就

    为论坛做出突出贡献的会员
  • 明星会员

    在论坛有很高知名度会员
  • 爆料达人

    发帖爆料达人
开启左侧

[剧情] [2013]两个女孩的诱惑和吸引力Nude.Area.2014.1080p.

[复制链接]
cede 捐助会员 显示全部楼层 发表于 2022-4-14 23:16:32 |阅读模式 打印 上一主题 下一主题

42892cbfa7cfa139cf3f4b8f7fce638d.jpeg
◎译  名 两个女孩的引诱战吸收力
◎片  名 Nude Area
◎年  代 2013
◎产  天 荷兰
◎类  别 剧情
◎语  行 荷兰躏
◎上映日期 2015-06-12(波兰)
◎IMDb链接 https://www.imdb.com/title/tt2352044/
◎豆瓣链接 https://movie.douban.com/subject/11620490/
◎片  少 80分钟
◎导  演 黑祖推·安东僧娅克 Urszula Antoniak (id:1322492)
◎编  剧 黑祖推·安东僧娅克 Urszula Antoniak (id:1322492)
◎演  员 伊曼·哈曼 Imaan Hammam (id:1365425)

◎简  介
  Two teenage girls and their mutual fascination and attraction.
Video
ID : 1
Format : AVC
Format/Info : Advanced Video Codec
Format profile : High@L4
Format settings : CABAC / 4 Ref Frames
Format settings, CABAC : Yes
Format settings, Reference frames : 4 frames
Codec ID : V_MPEG4/ISO/AVC
Duration : 1 h 21 min
Bit rate mode : Constant
Bit rate : 3 686 kb/s
Nominal bit rate : 10 000 kb/s
Width : 1 920 pixels
Height : 800 pixels
Display aspect ratio : 2.40:1
Frame rate mode : Constant
Frame rate : 24.000 FPS
Color space : YUV
Chroma subsampling : 4:2:0
Bit depth : 8 bits
Scan type : Progressive
Bits/(Pixel*Frame) : 0.100
Stream size : 2.09 GiB (85%)
Default : Yes
Forced : No
Color range : Limited
Color primaries : BT.709
Transfer characteristics : BT.709
Matrix coefficients : BT.709

Audio
ID : 2
Format : E-AC-3
Format/Info : Enhanced AC-3
Commercial name : Dolby Digital Plus
Codec ID : A_EAC3
Duration : 1 h 21 min
Bit rate mode : Constant
Bit rate : 640 kb/s
Channel(s) : 6 channels
Channel layout : L R C LFE Ls Rs
Sampling rate : 48.0 kHz
Frame rate : 31.250 FPS (1536 SPF)
Compression mode : Lossy
Stream size : 372 MiB (15%)
Language : English
Service kind : Complete Main
Default : Yes
Forced : No

Text
ID : 3
Format : UTF-8
Codec ID : S_TEXT/UTF8
Codec ID/Info : UTF-8 Plain Text
Duration : 1 h 16 min
Bit rate : 6 b/s
Count of elements : 151
Stream size : 3.48 KiB (0%)
Title : SDH - For Sound and Music
Language : English
Default : No
Forced : No
b98d45fc8dee1e4308cadc35ed395be9.png

旅客,假如您要检察本帖躲藏内容请复兴




上一篇:[2021][追虎擒龙][WEB-MKV/2.4G][国语中字][1080p]
下一篇:[2016] 白蚁:欲望谜网 White.Ant.2016.CHINESE.1080p

精彩评论3

夏裘冬葛粥可温 高级首粉 显示全部楼层 发表于 2022-4-15 08:03:47
1111111111111111111111111111111111111111
haikeloh 首发之星 显示全部楼层 发表于 2022-4-15 09:25:48
楼主辛苦了,谢谢首发之家!!
ljbh0611 新证会员 显示全部楼层 发表于 2022-4-15 09:39:56
首发之家,支持楼主
您需要登录后才可以回帖 登录 | 立即注册 用百度帐号登录

本版积分规则

首发之家社区成立于2011年3月,内容涉及3C家电、数码生活智能电视,股票软件,4K,体育,软件,教育,游戏等资源指标公式论坛。
  • 官方手机版

  • 抖音号

  • 商务合作

  • Powered by Discuz! X3.4 | Copyright © 2011-2021, Tencent Cloud. | 首发之家社区
  • |网站地图 | mp4d@qq.com|小黑屋|手机版|