返回顶部
  • 发帖数3548
  • 粉丝25

此人很懒,什么也没有留下

  • 最佳新人

  • 活跃会员

    经常参与各类话题的讨论,发帖内容较有主见
  • 热心会员

    经常帮助其他会员答疑
  • 灌水之王

    经常在论坛发帖,且发帖量较大
  • 社区劳模

    长期对论坛的繁荣而不断努力,或发帖主题数500以上
  • 终身成就

    为论坛做出突出贡献的会员
  • 明星会员

    在论坛有很高知名度会员
  • 爆料达人

    发帖爆料达人
开启左侧

[2020] [谤法 The Cursed][全12集][韩语内封简繁多国软字幕][WEB/MKV][1080P]

[复制链接]
cede 捐助会员 显示全部楼层 发表于 2022-3-18 22:58:41 |阅读模式 打印 上一主题 下一主题
3fefe46eb6300cfb051f6faf006a77a5.jpg

◎译  名 谤法 / The Cursed / 咒术 / 办法
◎片  名 방법
◎年  代 2020
◎产  天 韩国
◎类  别 悬疑 / 惊悚 / 奇异
◎语  行 韩语
◎上映日期 2020-02-10(韩国)
◎IMDb评分 7.3/10 from 193 users
◎豆瓣评分 7.1/10 from 13212 users
◎散  数 12
◎片  少 60分钟
◎导  演 金怯完 Yong-Wan Kim
◎编  剧 延尚昊 Sang-ho Yeon
◎主  演 宽志媛 Ji-won Uhm
       郑晓得 Ji-So Jeong
       成东日 Dong-il Sung
       赵敏建 Min-su Jo
       丁文晟 Moon-sung Jung
       金敏载 Kim Min-jae
       崔秉默 Byung-mo Choi
       金仁权 In-kwon Kim
       下圭弼 Ko Kyu-pil
       李仲玉 Joon gok Lee
       缓俊亨 Joon-hyung Seo
       车好京 Cha Mi Kyung
       李沂瞪 Lee Ye-bit
       吴裕珍 Oh Yu-Jin
       缓智薄 Ji-hoo Seo
       朴成日 Park Seong-il
       赵敏女 Min-ah Jo

◎简  介

  该剧报告了正在海内最年夜的IT企医诧存正在着一个恶神。独一明白实在状况的人是一位少女战一个记者。具有强力神技的少女战透辟公理感爆棚的消息事情者一同奋力摧誉恶神的默示录式方案的故事。

◎获奖状况

  第56届百念艺术年夜赏  (2020)
  电视类最好新人女演员(提名) 郑晓得

Video
ID : 1
Format : AVC
Format/Info : Advanced Video Codec
Format profile : High@L4
Format settings : CABAC / 4 Ref Frames
Format settings, CABAC : Yes
Format settings, Reference frames : 4 frames
Codec ID : V_MPEG4/ISO/AVC
Duration : 1 h 5 min
Bit rate mode : Variable
Bit rate : 4 006 kb/s
Maximum bit rate : 20.0 Mb/s
Width : 1 920 pixels
Height : 1 080 pixels
Display aspect ratio : 16:9
Frame rate mode : Constant
Frame rate : 23.976 (24000/1001) FPS
Color space : YUV
Chroma subsampling : 4:2:0
Bit depth : 8 bits
Scan type : Progressive
Bits/(Pixel*Frame) : 0.081
Stream size : 1.83 GiB (97%)
Writing library : x264 core 148 r2727 7d026e8
Encoding settings : cabac=1 / ref=4 / deblock=1:0:0 / analyse=0x3:0x111 / me=umh / subme=10 / psy=1 / psy_rd=1.00:0.00 / mixed_ref=1 / me_range=120 / chroma_me=1 / trellis=2 / 8x8dct=1 / cqm=0 / deadzone=21,11 / fast_pskip=1 / chroma_qp_offset=-2 / threads=8 / lookahead_threads=2 / sliced_threads=0 / nr=0 / decimate=1 / interlaced=0 / bluray_compat=0 / stitchable=1 / constrained_intra=0 / bframes=16 / b_pyramid=2 / b_adapt=2 / b_bias=0 / direct=3 / weightb=1 / open_gop=0 / weightp=2 / keyint=240 / keyint_min=121 / scenecut=0 / intra_refresh=0 / rc_lookahead=240 / rc=crf / mbtree=1 / crf=16.0 / qcomp=0.50 / qpmin=6 / qpmax=51 / qpstep=4 / vbv_maxrate=20000 / vbv_bufsize=25000 / crf_max=0.0 / nal_hrd=vbr / filler=0 / ip_ratio=1.40 / aq=1:0.80
Default : Yes
Forced : No

Audio
ID : 2
Format : E-AC-3
Format/Info : Enhanced AC-3
Commercial name : Dolby Digital Plus
Codec ID : A_EAC3
Duration : 1 h 5 min
Bit rate mode : Constant
Bit rate : 128 kb/s
Channel(s) : 2 channels
Channel layout : L R
Sampling rate : 48.0 kHz
Frame rate : 31.250 FPS (1536 SPF)
Compression mode : Lossy
Stream size : 59.8 MiB (3%)
Language : Korean
Service kind : Complete Main
Default : Yes
Forced : No

Text #1
......
Text #13
ID : 15
Format : UTF-8
Codec ID : S_TEXT/UTF8
Codec ID/Info : UTF-8 Plain Text
Duration : 1 h 4 min
Bit rate : 26 b/s
Count of elements : 499
Stream size : 12.5 KiB (0%)
Title : Simplified
Language : Chinese
Default : No
Forced : No

Text #14
ID : 16
Format : UTF-8
Codec ID : S_TEXT/UTF8
Codec ID/Info : UTF-8 Plain Text
Duration : 1 h 4 min
Bit rate : 24 b/s
Count of elements : 506
Stream size : 11.8 KiB (0%)
Title : Traditional
Language : Chinese
Default : No
Forced : No

Menu
00:00:00.020 : en:Intro
00:00:45.546 : en:Intro End
01:05:20.000 : en:Credits
eda9149e6dbe826b05382ec8a5ad5b61.jpg
5dc86b706a35f453daedbf7cbd16e5ca.jpg
a04db9004caa01a3fa2a603dffe005db.jpg

自己公布的种子请利用专业BT下载东西:
UT,Bitcomet,qBittorrent,Xdown开启上传后再下载!!!
利用迅雷或网盘离线能够会出速率!!!
视频的网盘资本均正在视频后缀(如mp4或mkv)后又跟从了.xy(mp4.xy或mkv.xy)用以混合民圆视听!
而且减稀了文件名,设置了独占的解压暗码,请利用WinRAR解压,利用好压或其他能够会堕落!
已结束剧散没有再分散挨包上传,团体挨包后分卷,没法零丁下载某一散,需求局部下载后一同解压,敬请晓得!
请列位下载的坛涌砣保留至本人的网盘,然后再停止下载!!!
没有要间接正在线寓目大概解压,不然会很快被网盘民圆觉察并调和!

请下载完秤弈伴侣自发做种冶工夫,小火管出种不容易,且下且顾惜,感谢!!!

解压请利用民圆本版WinRAR,利用曝柒版大概好压等硬件能够会堕落,感激一切赞扬的伴侣!!!



请点击此处下载

查看状态:需购买或无权限

您的用户组是:游客

文件名称:The.Cursed.S01.KOREAN.1080P.NF.WEBRip.X264.DDP2.0-TEPES.rar 
下载次数:0  文件大小:1.18 MB 
下载权限: 不限 [积分规则] [免费赚首币]






上一篇:[诡媚海妖 2018-2020][1-3季][简英字幕][WEB-MKV][1080P][x265/10bit]
下一篇:[2022][东京罪恶 Tokyo Vice 第一季][更新至03集][英语中字]
您需要登录后才可以回帖 登录 | 立即注册 用百度帐号登录

本版积分规则

首发之家社区成立于2011年3月,内容涉及3C家电、数码生活智能电视,股票软件,4K,体育,软件,教育,游戏等资源指标公式论坛。
  • 官方手机版

  • 抖音号

  • 商务合作

  • Powered by Discuz! X3.4 | Copyright © 2011-2021, Tencent Cloud. | 首发之家社区
  • |网站地图 | mp4d@qq.com|小黑屋|手机版|