返回顶部
  • 发帖数1669
  • 粉丝19

此人很懒,什么也没有留下

  • 最佳新人

  • 活跃会员

    经常参与各类话题的讨论,发帖内容较有主见
  • 热心会员

    经常帮助其他会员答疑
  • 灌水之王

    经常在论坛发帖,且发帖量较大
  • 社区劳模

    长期对论坛的繁荣而不断努力,或发帖主题数500以上
  • 终身成就

    为论坛做出突出贡献的会员
  • QQ绑定

    QQ绑定会员
  • 明星会员

    在论坛有很高知名度会员
  • 沙发达人

    抢沙总数达到100
  • 光悦帅哥

    上传了自己真人秀照片就可以获得勋章哦~
  • 实名认证

    通过身份证实名认证
  • 爆料达人

    发帖爆料达人
开启左侧

[剧情] [犬之力/犬山记]2021.2160p.NF.WEB-DL.x265.10bit.HDR.DDP5.1.13.93GB

[复制链接]
dolgm 高级首粉 显示全部楼层 发表于 2021-12-26 18:03:19 |阅读模式 打印 上一主题 下一主题
帖子完好题目:犬之力/犬山记 The.Power.of.the.Dog.2021.2160p.NF.WEB-DL.x265.10bit.HDR.DDP5.1.Atmos-PLEW 13.93GB


514eea606bc0b1d8d690f6ed2512925d.jpeg


◎译  名 犬之力/犬山记(港/台)
◎片  名 The Power of the Dog
◎年  代 2021
◎产  天 英国,澳年夜利亚,好国,减拿年夜,新西兰
◎类  别 剧情 / 同性 / 西部
◎语  行 英语
◎上映日期 2021-09-02(威僧斯影戏节) / 2021-11-17(好国) / 2021-12-01(好国收集)
◎豆瓣评分 7.6/10 from 18125 users
◎豆瓣链接 https://movie.douban.com/subject/33437152/
◎片  少 127分钟
◎导  演 简·坎皮恩 Jane Campion
◎编  剧 简·坎皮恩 Jane Campion / 托马斯·萨维偶 Thomas Savage
◎主  演 本僧迪克特·康伯巴偶 Benedict Cumberbatch
      克斯汀·邓斯特 Kirsten Dunst
      杰西·普莱受 Jesse Plemons
      柯蒂·斯稀特-麦菲 Kodi Smit-McPhee
      托马辛·麦肯齐 Thomasin McKenzie
      基思·卡推丹 Keith Carradine
      弗兰西丝·康罗伊 Frances Conroy
      凶娜维妇·莱受 Geneviève Lemon
      肖恩·基北 Sean Keenan
      科恩·霍洛维 Cohen Holloway
      爱丽丝·恩格勒特 Alice Englert
      Yvette Reid Yvette Reid
      斯特芬·劳瓦特 Stephen Lovatt
      瓦季姆·列多戈罗妇 Vadim Ledogorov
      墨莉·祸塞斯 Julie Forsyth
      钡烂·卡罗我 Peter Carroll
      艾莉森·布鲁斯 Alison Bruce
      年夜卫·T·林 David T·Lim
      亚当·比偶 Adam Beach

◎标  签 本僧迪克特·康伯巴偶 | 西部 | 剧情 | 2021 | 好国 | 英国 | 简·坎皮恩 | 恋爱

◎简  介

  富有魅力的牧场主菲我·伯班克(本僧迪克特·康伯巴偶 饰)让他四周的人又敬又怕。当他的兄弟将新婚老婆和她的女子带回家时,菲我各式熬煎他们,曲到有一天,他发明本人对爱也存有一丝盼望。

◎获奖状况

  第78届威僧斯影戏节 ?(2021)
  主比赛单位金狮奖(提名) 简·坎皮恩
  银狮奖最好导演 简·坎皮恩
  
  第79届金球奖 ?(2022)
  影戏类最好剧情片(提名)
  影戏类最好导演(提名) 简·坎皮恩
  影戏类剧情片最好男配角(提名) 本僧迪克特·康伯巴偶
  影戏类最好囊射角(提名) 柯蒂·斯稀特-麦菲
  影戏类最好女副角(提名) 克斯汀·邓斯特
  影戏类最好编剧(提名) 简·坎皮恩
  影戏类最好本创配乐(提名) 强僧·格林伍德
  
  第69届圣塞巴斯蒂安国颊骁影节 ?(2021)
  SebastianeAward 简·坎皮恩
  
  第87届纽约醢评人协会奖 ?(2021)
  最好导演 简·坎皮恩
  最好男配角 本僧迪克特·康伯巴偶
  最好囊射角 柯蒂·斯稀特-麦菲
Video
ID : 1
Format : HEVC
Format/Info : High Efficiency Video Coding
Format profile : Main 10@L5@Main
HDR format : SMPTE ST 2086, HDR10 compatible
Codec ID : V_MPEGH/ISO/HEVC
Duration : 2 h 7 min
Bit rate : 14.9 Mb/s
Width : 3 840 pixels
Height : 2 160 pixels
Display aspect ratio : 16:9
Frame rate mode : Constant
Frame rate : 24.000 FPS
Color space : YUV
Chroma subsampling : 4:2:0 (Type 2)
Bit depth : 10 bits
Bits/(Pixel*Frame) : 0.075
Stream size : 13.2 GiB (95%)
Default : Yes
Forced : No
Color range : Limited
Color primaries : BT.2020
Transfer characteristics : PQ
Matrix coefficients : BT.2020 non-constant
Mastering display color primaries : Display P3
Mastering display luminance : min: 0.0001 cd/m2, max: 1000 cd/m2
Maximum Content Light Level : 1870 cd/m2
Maximum Frame-Average Light Level : 104 cd/m2

Audio
ID : 2
Format : E-AC-3 JOC
Format/Info : Enhanced AC-3 with Joint Object Coding
Commercial name : Dolby Digital Plus with Dolby Atmos
Codec ID : A_EAC3
Duration : 2 h 8 min
Bit rate mode : Constant
Bit rate : 768 kb/s
Channel(s) : 6 channels
Channel layout : L R C LFE Ls Rs
Sampling rate : 48.0 kHz
Frame rate : 31.250 FPS (1536 SPF)
Compression mode : Lossy
Stream size : 707 MiB (5%)
Language : English
Service kind : Complete Main
Default : Yes
Forced : No
Complexity index : 16
Number of dynamic objects : 15
Bed channel count : 1 channel
Bed channel configuration : LFE

Text #1
ID : 3
Format : UTF-8
Codec ID : S_TEXT/UTF8
Codec ID/Info : UTF-8 Plain Text
Duration : 2 h 4 min
Bit rate : 37 b/s
Count of elements : 1246
Stream size : 34.4 KiB (0%)
Title : SDH
Language : English
Default : No
Forced : No

Text #2
ID : 4
Format : UTF-8
Codec ID : S_TEXT/UTF8
Codec ID/Info : UTF-8 Plain Text
Duration : 2 h 5 min
Bit rate : 46 b/s
Count of elements : 902
Stream size : 42.5 KiB (0%)
Language : Arabic
Default : No
Forced : No

Text #3
ID : 5
Format : UTF-8
Codec ID : S_TEXT/UTF8
Codec ID/Info : UTF-8 Plain Text
Duration : 2 h 5 min
Bit rate : 23 b/s
Count of elements : 869
Stream size : 21.4 KiB (0%)
Language : Czech
Default : No
Forced : No

Text #4
ID : 6
Format : UTF-8
Codec ID : S_TEXT/UTF8
Codec ID/Info : UTF-8 Plain Text
Duration : 2 h 6 min
Bit rate : 23 b/s
Count of elements : 841
Stream size : 21.8 KiB (0%)
Language : Danish
Default : No
Forced : No

Text #5
ID : 7
Format : UTF-8
Codec ID : S_TEXT/UTF8
Codec ID/Info : UTF-8 Plain Text
Duration : 2 h 5 min
Bit rate : 23 b/s
Count of elements : 869
Stream size : 21.9 KiB (0%)
Language : German
Default : No
Forced : No

Text #6
ID : 8
Format : UTF-8
Codec ID : S_TEXT/UTF8
Codec ID/Info : UTF-8 Plain Text
Duration : 2 h 6 min
Bit rate : 41 b/s
Count of elements : 875
Stream size : 38.9 KiB (0%)
Language : Greek
Default : No
Forced : No

Text #7
ID : 9
Format : UTF-8
Codec ID : S_TEXT/UTF8
Codec ID/Info : UTF-8 Plain Text
Duration : 2 h 5 min
Bit rate : 25 b/s
Count of elements : 871
Stream size : 23.6 KiB (0%)
Language : Spanish
Default : No
Forced : No

Text #8
ID : 10
Format : UTF-8
Codec ID : S_TEXT/UTF8
Codec ID/Info : UTF-8 Plain Text
Duration : 2 h 5 min
Bit rate : 24 b/s
Count of elements : 886
Stream size : 22.6 KiB (0%)
Title : Europe
Language : Spanish
Default : No
Forced : No

Text #9
ID : 11
Format : UTF-8
Codec ID : S_TEXT/UTF8
Codec ID/Info : UTF-8 Plain Text
Duration : 2 h 5 min
Bit rate : 22 b/s
Count of elements : 851
Stream size : 21.1 KiB (0%)
Language : Finnish
Default : No
Forced : No

Text #10
ID : 12
Format : UTF-8
Codec ID : S_TEXT/UTF8
Codec ID/Info : UTF-8 Plain Text
Duration : 2 h 5 min
Bit rate : 25 b/s
Count of elements : 856
Stream size : 23.9 KiB (0%)
Language : French
Default : No
Forced : No

Text #11
ID : 13
Format : UTF-8
Codec ID : S_TEXT/UTF8
Codec ID/Info : UTF-8 Plain Text
Duration : 2 h 5 min
Bit rate : 41 b/s
Count of elements : 884
Stream size : 37.9 KiB (0%)
Language : Hebrew
Default : No
Forced : No

Text #12
ID : 14
Format : UTF-8
Codec ID : S_TEXT/UTF8
Codec ID/Info : UTF-8 Plain Text
Duration : 2 h 5 min
Bit rate : 23 b/s
Count of elements : 882
Stream size : 21.3 KiB (0%)
Language : Croatian
Default : No
Forced : No

Text #13
ID : 15
Format : UTF-8
Codec ID : S_TEXT/UTF8
Codec ID/Info : UTF-8 Plain Text
Duration : 2 h 5 min
Bit rate : 25 b/s
Count of elements : 866
Stream size : 23.5 KiB (0%)
Language : Hungarian
Default : No
Forced : No

Text #14
ID : 16
Format : UTF-8
Codec ID : S_TEXT/UTF8
Codec ID/Info : UTF-8 Plain Text
Duration : 2 h 5 min
Bit rate : 24 b/s
Count of elements : 875
Stream size : 22.8 KiB (0%)
Language : Indonesian
Default : No
Forced : No

Text #15
ID : 17
Format : UTF-8
Codec ID : S_TEXT/UTF8
Codec ID/Info : UTF-8 Plain Text
Duration : 2 h 5 min
Bit rate : 22 b/s
Count of elements : 865
Stream size : 20.8 KiB (0%)
Language : Italian
Default : No
Forced : No

Text #16
ID : 18
Format : UTF-8
Codec ID : S_TEXT/UTF8
Codec ID/Info : UTF-8 Plain Text
Duration : 2 h 5 min
Bit rate : 26 b/s
Count of elements : 910
Stream size : 24.1 KiB (0%)
Language : Japanese
Default : No
Forced : No

Text #17
ID : 19
Format : UTF-8
Codec ID : S_TEXT/UTF8
Codec ID/Info : UTF-8 Plain Text
Duration : 2 h 5 min
Bit rate : 29 b/s
Count of elements : 884
Stream size : 27.0 KiB (0%)
Language : Korean
Default : No
Forced : No

Text #18
ID : 20
Format : UTF-8
Codec ID : S_TEXT/UTF8
Codec ID/Info : UTF-8 Plain Text
Duration : 2 h 5 min
Bit rate : 23 b/s
Count of elements : 879
Stream size : 22.0 KiB (0%)
Language : Malay
Default : No
Forced : No

Text #19
ID : 21
Format : UTF-8
Codec ID : S_TEXT/UTF8
Codec ID/Info : UTF-8 Plain Text
Duration : 2 h 5 min
Bit rate : 22 b/s
Count of elements : 837
Stream size : 20.8 KiB (0%)
Language : Norwegian Bokmal
Default : No
Forced : No

Text #20
ID : 22
Format : UTF-8
Codec ID : S_TEXT/UTF8
Codec ID/Info : UTF-8 Plain Text
Duration : 2 h 5 min
Bit rate : 23 b/s
Count of elements : 780
Stream size : 21.5 KiB (0%)
Language : Dutch
Default : No
Forced : No

Text #21
ID : 23
Format : UTF-8
Codec ID : S_TEXT/UTF8
Codec ID/Info : UTF-8 Plain Text
Duration : 2 h 5 min
Bit rate : 23 b/s
Count of elements : 871
Stream size : 21.9 KiB (0%)
Language : Polish
Default : No
Forced : No

Text #22
ID : 24
Format : UTF-8
Codec ID : S_TEXT/UTF8
Codec ID/Info : UTF-8 Plain Text
Duration : 2 h 5 min
Bit rate : 25 b/s
Count of elements : 871
Stream size : 23.4 KiB (0%)
Language : Portuguese
Default : No
Forced : No

Text #23
ID : 25
Format : UTF-8
Codec ID : S_TEXT/UTF8
Codec ID/Info : UTF-8 Plain Text
Duration : 2 h 5 min
Bit rate : 24 b/s
Count of elements : 865
Stream size : 22.7 KiB (0%)
Title : Brazil
Language : Portuguese
Default : No
Forced : No

Text #24
ID : 26
Format : UTF-8
Codec ID : S_TEXT/UTF8
Codec ID/Info : UTF-8 Plain Text
Duration : 2 h 5 min
Bit rate : 28 b/s
Count of elements : 839
Stream size : 25.8 KiB (0%)
Language : Romanian
Default : No
Forced : No

Text #25
ID : 27
Format : UTF-8
Codec ID : S_TEXT/UTF8
Codec ID/Info : UTF-8 Plain Text
Duration : 2 h 5 min
Bit rate : 41 b/s
Count of elements : 871
Stream size : 38.6 KiB (0%)
Language : Russian
Default : No
Forced : No

Text #26
ID : 28
Format : UTF-8
Codec ID : S_TEXT/UTF8
Codec ID/Info : UTF-8 Plain Text
Duration : 2 h 5 min
Bit rate : 24 b/s
Count of elements : 834
Stream size : 22.3 KiB (0%)
Language : Swedish
Default : No
Forced : No

Text #27
ID : 29
Format : UTF-8
Codec ID : S_TEXT/UTF8
Codec ID/Info : UTF-8 Plain Text
Duration : 2 h 5 min
Bit rate : 65 b/s
Count of elements : 881
Stream size : 60.3 KiB (0%)
Language : Thai
Default : No
Forced : No

Text #28
ID : 30
Format : UTF-8
Codec ID : S_TEXT/UTF8
Codec ID/Info : UTF-8 Plain Text
Duration : 2 h 5 min
Bit rate : 25 b/s
Count of elements : 845
Stream size : 23.1 KiB (0%)
Language : Turkish
Default : No
Forced : No

Text #29
ID : 31
Format : UTF-8
Codec ID : S_TEXT/UTF8
Codec ID/Info : UTF-8 Plain Text
Duration : 2 h 5 min
Bit rate : 41 b/s
Count of elements : 857
Stream size : 37.8 KiB (0%)
Language : Ukrainian
Default : No
Forced : No

Text #30
ID : 32
Format : UTF-8
Codec ID : S_TEXT/UTF8
Codec ID/Info : UTF-8 Plain Text
Duration : 2 h 5 min
Bit rate : 36 b/s
Count of elements : 901
Stream size : 33.9 KiB (0%)
Language : Vietnamese
Default : No
Forced : No

Text #31
ID : 33
Format : UTF-8
Codec ID : S_TEXT/UTF8
Codec ID/Info : UTF-8 Plain Text
Duration : 2 h 5 min
Bit rate : 26 b/s
Count of elements : 881
Stream size : 24.7 KiB (0%)
Title : Simplified
Language : Chinese
Default : No
Forced : No

Text #32
ID : 34
Format : UTF-8
Codec ID : S_TEXT/UTF8
Codec ID/Info : UTF-8 Plain Text
Duration : 2 h 5 min
Bit rate : 26 b/s
Count of elements : 911
Stream size : 24.5 KiB (0%)
Title : Traditional
Language : Chinese
Default : No
Forced : No





旅客,假如您要检察本帖躲藏内容请复兴




上一篇:间谍同盟[中文字幕]2016.2160p.UHD.BluRay.HDR.DTS-HD.MA.5.1.x265 9.20G
下一篇:北区侦缉队2020.FRENCH.2160p.UHD.BluRay.x265.10bit.HDR.DTS-HD.MA.5.1-18.54GB

精彩评论1

微信_e789651639 捐助会员 显示全部楼层 发表于 2021-12-31 18:26:29
谢谢分享~~~~~~~
您需要登录后才可以回帖 登录 | 立即注册 用百度帐号登录

本版积分规则

首发之家社区成立于2011年3月,内容涉及3C家电、数码生活智能电视,股票软件,4K,体育,软件,教育,游戏等资源指标公式论坛。
  • 官方手机版

  • 抖音号

  • 商务合作

  • Powered by Discuz! X3.4 | Copyright © 2011-2021, Tencent Cloud. | 首发之家社区
  • |网站地图 | mp4d@qq.com|小黑屋|手机版|