返回顶部
  • 发帖数1669
  • 粉丝19

此人很懒,什么也没有留下

  • 最佳新人

  • 活跃会员

    经常参与各类话题的讨论,发帖内容较有主见
  • 热心会员

    经常帮助其他会员答疑
  • 灌水之王

    经常在论坛发帖,且发帖量较大
  • 社区劳模

    长期对论坛的繁荣而不断努力,或发帖主题数500以上
  • 终身成就

    为论坛做出突出贡献的会员
  • QQ绑定

    QQ绑定会员
  • 明星会员

    在论坛有很高知名度会员
  • 沙发达人

    抢沙总数达到100
  • 光悦帅哥

    上传了自己真人秀照片就可以获得勋章哦~
  • 实名认证

    通过身份证实名认证
  • 爆料达人

    发帖爆料达人
开启左侧

[剧情] 不要抬头/别往天上看2021.2160p.NF.WEB-DL.x265.10bit.SDR.DDP5.1. 12.07GB

[复制链接]
dolgm 高级首粉 显示全部楼层 发表于 2021-12-26 18:01:37 |阅读模式 打印 上一主题 下一主题
帖子完好题目:没有要仰面/别往天上看 Dont.Look.Up.2021.2160p.NF.WEB-DL.x265.10bit.SDR.DDP5.1.Atmos-IBAZM 12.07GB
696962f14fbced19552ef81f98819e4a.jpeg

◎译  名 没有要仰面/别往天上看/万万别仰面
◎片  名 Don't Look Up
◎年  代 2021
◎产  天 好国
◎类  别 剧情 / 笑剧 / 科幻
◎语  行 英语
◎上映日期 2021-12-10(好国) / 2021-12-24(好国收集)
◎豆瓣评分 7.3/10 from 16661 users
◎豆瓣链接 https://movie.douban.com/subject/34884712/
◎片  少 145分钟
◎导  演 亚当·麦凯 Adam McKay
◎编  剧 亚当·麦凯 Adam McKay / 戴维·西罗塔 David Sirota
◎主  演 莱昂纳多·迪卡普里奥 Leonardo DiCaprio
      詹妮弗·劳伦斯 Jennifer Lawrence
      梅丽我·斯特里普 Meryl Streep
      凯特·布兰切特 Cate Blanchett
      罗布·摩根 Rob Morgan
      乔纳·希我 Jonah Hill
      马克·里朗斯 Mark Rylance
      泰勒·派瑞 Tyler Perry
      蒂莫西·柴勒梅德 Timothée Chalamet
      朗·普我曼 Ron Perlman
      爱莉安挠毪格兰德 Ariana Grande
      卡得Α子 Kid Cudi
      渴攀里斯·埃文斯 Chris Evans
      希米什·帕特我 Himesh Patel
      梅兰妮·林斯基 Melanie Lynskey
      迈克我·切渴攀利斯 Michael Chiklis
      托莫·希思黎 Tomer Sisley
      保罗·凶我祸伊我 Paul Guilfoyle
      罗伯特·乔伊 Robert Joy
      海缇安·朴 Hettienne Park
      朗僧·法默 Lonnie Farmer
      罗斯·帕特里偶 Ross Partridge
      列维·施瑞专我 Liev Schreiber
      渴攀里斯·埃弗里特 Chris Everett
      乔治亚·莱曼 Georgia Lyman
      帕特丽夏·德哈僧 Patricia DeHaney
      本·锡德我 Ben Sidell
      特蕾莎·普雷恩 Therese Plaehn
      Meghan Leathers Meghan Leathers
      阿什利·班菲我德 Ashleigh Banfield
      萨推·西我弗曼 Sarah Silverman
      乔·格推瑟 Jon Glaser
      Beau Allen Beau Allen
      塞莱斯特·奥利瓦 Celeste Oliva
      罗曼·米蒂齐扬 Roman Mitichyan
      内森·里偶曼 Nate Richman
      韦斯·约翰逊 Wes Johnson
      马建·派瑞 Matthew Perry
      塔玛推·希基 Tamara Hickey
      布里安挠毪温 Breanna Wing
      爱德华德·弗莱彻 Edward Fletcher
      马科·查卡 Marko Caka
      托马斯·马里亚诺 Thomas Mariano

◎标  签 玄色诙谐 | 莱昂纳多·迪卡普里奥 | Netflix | 好国 | 笑剧 | 科幻 | 2021 | 詹妮弗·劳伦斯

◎简  介

  天我拽研讨死凯特·迪比亚斯凯(詹妮弗·劳伦斯饰)战她的传授兰德我·明迪专士(莱昂纳多·迪卡普里奥饰)有了一项惊鹊滥发明:一颗正在太阳系内运转的彗星。成绩是:那颗彗星会间接取天球相碰。而另外一个成绩是,仿佛出有人实正体贴。究竟结果,正告仁攀类一座珠穆朗玛峰行将碰背天球并消灭天下,其实易以使人服气。正在奥格我索普专士(罗布·摩根饰)的协助下,凯特战兰德我开端采纳媒体战术,他梅徭别淡漠的总统奥我良(梅丽我·斯特里普饰)战她的马屁粗女子兼办公厅主任贾森(乔纳·希我饰),去到《The Daily Rip》狄纵播室 — 那是一档氛围愉快的早间节目,由布里(凯特·布兰切特饰)战杰克(泰勒·派瑞饰)掌管。间隔彗星碰击天球只要 6 个月的工夫,为了让动静正在消息频讲里 24 小时转动播放,并唤起沉浸于刷脚机的群众留意,他们几乎要拼上老命,才气让天下略微抬开端。
  
  《万万别仰面》由奥斯卡金像奖得主亚当·麦凯(《年夜空头〗暴担当编剧战导演,主演声势包罗马克·里朗斯、朗·普我曼、蒂莫西·柴勒梅德、爱莉安挠毪格兰德、斯空关·梅斯库迪(亦称卡得Α子)、希米什·帕特我、梅兰妮·林斯基、迈克我·切渴攀利斯战托莫·希思黎。

◎获奖状况

  第79届金球奖 ?(2022)
  影戏类最好音乐/笑剧片(提名)
  影戏类音乐/笑剧片最好男配角(提名) 莱昂纳多·迪卡普里奥
  影戏类音乐/笑剧片最好女配角(提名) 詹妮弗·劳伦斯
  影戏类最好编剧(提名) 亚当·麦凯
Video
ID : 1
Format : HEVC
Format/Info : High Efficiency Video Coding
Format profile : Main 10@L5@Main
Codec ID : V_MPEGH/ISO/HEVC
Duration : 2 h 23 min
Bit rate : 11.3 Mb/s
Width : 3 840 pixels
Height : 2 160 pixels
Display aspect ratio : 16:9
Frame rate mode : Constant
Frame rate : 24.000 FPS
Color space : YUV
Chroma subsampling : 4:2:0
Bit depth : 10 bits
Bits/(Pixel*Frame) : 0.057
Stream size : 11.3 GiB (94%)
Default : Yes
Forced : No
Color range : Limited
Color primaries : BT.709
Transfer characteristics : BT.709
Matrix coefficients : BT.709

Audio
ID : 2
Format : E-AC-3 JOC
Format/Info : Enhanced AC-3 with Joint Object Coding
Commercial name : Dolby Digital Plus with Dolby Atmos
Codec ID : A_EAC3
Duration : 2 h 23 min
Bit rate mode : Constant
Bit rate : 768 kb/s
Channel(s) : 6 channels
Channel layout : L R C LFE Ls Rs
Sampling rate : 48.0 kHz
Frame rate : 31.250 FPS (1536 SPF)
Compression mode : Lossy
Stream size : 787 MiB (6%)
Language : English
Service kind : Complete Main
Default : Yes
Forced : No
Complexity index : 16
Number of dynamic objects : 15
Bed channel count : 1 channel
Bed channel configuration : LFE

Text #1
ID : 3
Format : UTF-8
Codec ID : S_TEXT/UTF8
Codec ID/Info : UTF-8 Plain Text
Duration : 2 h 17 min
Bit rate : 82 b/s
Count of elements : 2108
Stream size : 82.6 KiB (0%)
Language : English
Default : No
Forced : No

Text #2
ID : 4
Format : UTF-8
Codec ID : S_TEXT/UTF8
Codec ID/Info : UTF-8 Plain Text
Duration : 2 h 17 min
Bit rate : 91 b/s
Count of elements : 2343
Stream size : 91.9 KiB (0%)
Title : SDH
Language : English
Default : No
Forced : No

Text #3
ID : 5
Format : UTF-8
Codec ID : S_TEXT/UTF8
Codec ID/Info : UTF-8 Plain Text
Duration : 2 h 17 min
Bit rate : 128 b/s
Count of elements : 2075
Stream size : 130 KiB (0%)
Language : Arabic
Default : No
Forced : No

Text #4
ID : 6
Format : UTF-8
Codec ID : S_TEXT/UTF8
Codec ID/Info : UTF-8 Plain Text
Duration : 2 h 17 min
Bit rate : 66 b/s
Count of elements : 2015
Stream size : 67.4 KiB (0%)
Language : Czech
Default : No
Forced : No

Text #5
ID : 7
Format : UTF-8
Codec ID : S_TEXT/UTF8
Codec ID/Info : UTF-8 Plain Text
Duration : 2 h 17 min
Bit rate : 65 b/s
Count of elements : 1935
Stream size : 66.5 KiB (0%)
Language : Danish
Default : No
Forced : No

Text #6
ID : 8
Format : UTF-8
Codec ID : S_TEXT/UTF8
Codec ID/Info : UTF-8 Plain Text
Duration : 2 h 17 min
Bit rate : 68 b/s
Count of elements : 2016
Stream size : 69.1 KiB (0%)
Language : German
Default : No
Forced : No

Text #7
ID : 9
Format : UTF-8
Codec ID : S_TEXT/UTF8
Codec ID/Info : UTF-8 Plain Text
Duration : 2 h 17 min
Bit rate : 119 b/s
Count of elements : 2041
Stream size : 121 KiB (0%)
Language : Greek
Default : No
Forced : No

Text #8
ID : 10
Format : UTF-8
Codec ID : S_TEXT/UTF8
Codec ID/Info : UTF-8 Plain Text
Duration : 2 h 17 min
Bit rate : 73 b/s
Count of elements : 1992
Stream size : 73.7 KiB (0%)
Title : Spanish
Language : Spanish
Default : No
Forced : No

Text #9
ID : 11
Format : UTF-8
Codec ID : S_TEXT/UTF8
Codec ID/Info : UTF-8 Plain Text
Duration : 2 h 17 min
Bit rate : 73 b/s
Count of elements : 2034
Stream size : 73.9 KiB (0%)
Title : European
Language : Spanish
Default : No
Forced : No

Text #10
ID : 12
Format : UTF-8
Codec ID : S_TEXT/UTF8
Codec ID/Info : UTF-8 Plain Text
Duration : 2 h 17 min
Bit rate : 64 b/s
Count of elements : 1763
Stream size : 65.1 KiB (0%)
Language : Finnish
Default : No
Forced : No

Text #11
ID : 13
Format : UTF-8
Codec ID : S_TEXT/UTF8
Codec ID/Info : UTF-8 Plain Text
Duration : 2 h 17 min
Bit rate : 65 b/s
Count of elements : 2073
Stream size : 65.7 KiB (0%)
Language : French
Default : No
Forced : No

Text #12
ID : 14
Format : UTF-8
Codec ID : S_TEXT/UTF8
Codec ID/Info : UTF-8 Plain Text
Duration : 2 h 17 min
Bit rate : 111 b/s
Count of elements : 2064
Stream size : 113 KiB (0%)
Language : Hebrew
Default : No
Forced : No

Text #13
ID : 15
Format : UTF-8
Codec ID : S_TEXT/UTF8
Codec ID/Info : UTF-8 Plain Text
Duration : 2 h 17 min
Bit rate : 66 b/s
Count of elements : 1989
Stream size : 67.1 KiB (0%)
Language : Croatian
Default : No
Forced : No

Text #14
ID : 16
Format : UTF-8
Codec ID : S_TEXT/UTF8
Codec ID/Info : UTF-8 Plain Text
Duration : 2 h 17 min
Bit rate : 72 b/s
Count of elements : 2029
Stream size : 72.6 KiB (0%)
Language : Hungarian
Default : No
Forced : No

Text #15
ID : 17
Format : UTF-8
Codec ID : S_TEXT/UTF8
Codec ID/Info : UTF-8 Plain Text
Duration : 2 h 17 min
Bit rate : 67 b/s
Count of elements : 2059
Stream size : 67.6 KiB (0%)
Language : Indonesian
Default : No
Forced : No

Text #16
ID : 18
Format : UTF-8
Codec ID : S_TEXT/UTF8
Codec ID/Info : UTF-8 Plain Text
Duration : 2 h 17 min
Bit rate : 68 b/s
Count of elements : 2023
Stream size : 69.3 KiB (0%)
Language : Italian
Default : No
Forced : No

Text #17
ID : 19
Format : UTF-8
Codec ID : S_TEXT/UTF8
Codec ID/Info : UTF-8 Plain Text
Duration : 2 h 17 min
Bit rate : 67 b/s
Count of elements : 2036
Stream size : 67.8 KiB (0%)
Language : Japanese
Default : No
Forced : No

Text #18
ID : 20
Format : UTF-8
Codec ID : S_TEXT/UTF8
Codec ID/Info : UTF-8 Plain Text
Duration : 2 h 17 min
Bit rate : 79 b/s
Count of elements : 2049
Stream size : 79.9 KiB (0%)
Language : Korean
Default : No
Forced : No

Text #19
ID : 21
Format : UTF-8
Codec ID : S_TEXT/UTF8
Codec ID/Info : UTF-8 Plain Text
Duration : 2 h 17 min
Bit rate : 66 b/s
Count of elements : 2024
Stream size : 67.4 KiB (0%)
Language : Malay
Default : No
Forced : No

Text #20
ID : 22
Format : UTF-8
Codec ID : S_TEXT/UTF8
Codec ID/Info : UTF-8 Plain Text
Duration : 2 h 17 min
Bit rate : 63 b/s
Count of elements : 1925
Stream size : 63.7 KiB (0%)
Language : Norwegian Bokmal
Default : No
Forced : No

Text #21
ID : 23
Format : UTF-8
Codec ID : S_TEXT/UTF8
Codec ID/Info : UTF-8 Plain Text
Duration : 2 h 17 min
Bit rate : 61 b/s
Count of elements : 1848
Stream size : 61.6 KiB (0%)
Language : Dutch
Default : No
Forced : No

Text #22
ID : 24
Format : UTF-8
Codec ID : S_TEXT/UTF8
Codec ID/Info : UTF-8 Plain Text
Duration : 2 h 17 min
Bit rate : 69 b/s
Count of elements : 2002
Stream size : 69.8 KiB (0%)
Language : Polish
Default : No
Forced : No

Text #23
ID : 25
Format : UTF-8
Codec ID : S_TEXT/UTF8
Codec ID/Info : UTF-8 Plain Text
Duration : 2 h 17 min
Bit rate : 70 b/s
Count of elements : 1987
Stream size : 71.0 KiB (0%)
Title : Portuguese
Language : Portuguese
Default : No
Forced : No

Text #24
ID : 26
Format : UTF-8
Codec ID : S_TEXT/UTF8
Codec ID/Info : UTF-8 Plain Text
Duration : 2 h 17 min
Bit rate : 67 b/s
Count of elements : 1993
Stream size : 68.4 KiB (0%)
Title : Brazilian
Language : Portuguese
Default : No
Forced : No

Text #25
ID : 27
Format : UTF-8
Codec ID : S_TEXT/UTF8
Codec ID/Info : UTF-8 Plain Text
Duration : 2 h 17 min
Bit rate : 80 b/s
Count of elements : 2054
Stream size : 81.4 KiB (0%)
Language : Romanian
Default : No
Forced : No

Text #26
ID : 28
Format : UTF-8
Codec ID : S_TEXT/UTF8
Codec ID/Info : UTF-8 Plain Text
Duration : 2 h 17 min
Bit rate : 114 b/s
Count of elements : 2049
Stream size : 116 KiB (0%)
Language : Russian
Default : No
Forced : No

Text #27
ID : 29
Format : UTF-8
Codec ID : S_TEXT/UTF8
Codec ID/Info : UTF-8 Plain Text
Duration : 2 h 17 min
Bit rate : 67 b/s
Count of elements : 1790
Stream size : 67.7 KiB (0%)
Language : Swedish
Default : No
Forced : No

Text #28
ID : 30
Format : UTF-8
Codec ID : S_TEXT/UTF8
Codec ID/Info : UTF-8 Plain Text
Duration : 2 h 17 min
Bit rate : 187 b/s
Count of elements : 2081
Stream size : 188 KiB (0%)
Language : Thai
Default : No
Forced : No

Text #29
ID : 31
Format : UTF-8
Codec ID : S_TEXT/UTF8
Codec ID/Info : UTF-8 Plain Text
Duration : 2 h 17 min
Bit rate : 72 b/s
Count of elements : 2037
Stream size : 73.4 KiB (0%)
Language : Turkish
Default : No
Forced : No

Text #30
ID : 32
Format : UTF-8
Codec ID : S_TEXT/UTF8
Codec ID/Info : UTF-8 Plain Text
Duration : 2 h 17 min
Bit rate : 112 b/s
Count of elements : 2010
Stream size : 113 KiB (0%)
Language : Ukrainian
Default : No
Forced : No

Text #31
ID : 33
Format : UTF-8
Codec ID : S_TEXT/UTF8
Codec ID/Info : UTF-8 Plain Text
Duration : 2 h 17 min
Bit rate : 101 b/s
Count of elements : 2060
Stream size : 102 KiB (0%)
Language : Vietnamese
Default : No
Forced : No

Text #32
ID : 34
Format : UTF-8
Codec ID : S_TEXT/UTF8
Codec ID/Info : UTF-8 Plain Text
Duration : 2 h 17 min
Bit rate : 72 b/s
Count of elements : 2070
Stream size : 73.1 KiB (0%)
Title : Simplified
Language : Chinese
Default : No
Forced : No

Text #33
ID : 35
Format : UTF-8
Codec ID : S_TEXT/UTF8
Codec ID/Info : UTF-8 Plain Text
Duration : 2 h 17 min
Bit rate : 67 b/s
Count of elements : 2072
Stream size : 67.5 KiB (0%)
Title : Traditional
Language : Chinese
Default : No
Forced : No

Menu
02:18:09.000 : en:Credits





旅客,假如您要检察本帖躲藏内容请复兴




上一篇:纽瓦克众圣[中文字幕]2021.BluRay.2160p.TrueHD.7.1.HDR.x265.10bit 20.66GB
下一篇:间谍同盟[中文字幕]2016.2160p.UHD.BluRay.HDR.DTS-HD.MA.5.1.x265 9.20G

精彩评论6

mfkfeifei 首发之星 显示全部楼层 发表于 2021-12-26 22:59:43
楼主辛苦了,谢谢首发之家!!
蝎子阿飞 首发熟人 显示全部楼层 发表于 2021-12-26 23:16:27
楼主辛苦了,谢谢首发之家!!
hejiemac 高级首粉 显示全部楼层 发表于 2021-12-27 15:44:24
谢谢楼主分享!
a000000000 高级首粉 显示全部楼层 发表于 2021-12-28 14:47:44
gdrtgefityierohfdjkvbcxzvhsgflsadhgjkdakjfui


浅巷九猫 首发熟人 显示全部楼层 发表于 2021-12-31 21:30:27
站点威武 站长牛逼
984526684 首发熟人 显示全部楼层 发表于 2022-1-2 22:14:04
楼主辛苦了,谢谢首发之家!!
您需要登录后才可以回帖 登录 | 立即注册 用百度帐号登录

本版积分规则

首发之家社区成立于2011年3月,内容涉及3C家电、数码生活智能电视,股票软件,4K,体育,软件,教育,游戏等资源指标公式论坛。
  • 官方手机版

  • 抖音号

  • 商务合作

  • Powered by Discuz! X3.4 | Copyright © 2011-2021, Tencent Cloud. | 首发之家社区
  • |网站地图 | mp4d@qq.com|小黑屋|手机版|