返回顶部
  • 发帖数1669
  • 粉丝19

此人很懒,什么也没有留下

  • 最佳新人

  • 活跃会员

    经常参与各类话题的讨论,发帖内容较有主见
  • 热心会员

    经常帮助其他会员答疑
  • 灌水之王

    经常在论坛发帖,且发帖量较大
  • 社区劳模

    长期对论坛的繁荣而不断努力,或发帖主题数500以上
  • 终身成就

    为论坛做出突出贡献的会员
  • QQ绑定

    QQ绑定会员
  • 明星会员

    在论坛有很高知名度会员
  • 沙发达人

    抢沙总数达到100
  • 光悦帅哥

    上传了自己真人秀照片就可以获得勋章哦~
  • 实名认证

    通过身份证实名认证
  • 爆料达人

    发帖爆料达人
开启左侧

[剧情] 平安夜/最后一个平安夜.2021.2160p.BluRay.REMUX.HEVC.DTS-HD.MA.5.1-FGT 45.75GB

[复制链接]
dolgm 高级首粉 显示全部楼层 发表于 2021-12-23 00:49:33 |阅读模式 打印 上一主题 下一主题
帖子完好题目:安然夜/最初一个安然夜 Silent.Night.2021.2160p.BluRay.REMUX.HEVC.DTS-HD.MA.5.1-FGT 45.75GB



d05ea6ea1a79c1526dae594156cea362.jpeg

◎译  名 安然夜/最初一个安然夜(台)
◎片  名 Silent Night
◎年  代 2021
◎产  天 英国
◎类  别 剧情 / 笑剧 / 恐惧
◎语  行 英语
◎上映日期 2021-09-16(多伦多影戏节) / 2021-12-03(英国)
◎豆瓣评分 5.7/10 from 145 users
◎豆瓣链接 https://movie.douban.com/subject/34951617/
◎片  少 92分钟
◎导  演 卡米我·格里芬 Camille Griffin
◎编  剧 卡米我·格里芬 Camille Griffin
◎主  演 凯推·奈特莉 Keira Knightley
      马建·古迪 Matthew Goode
      罗曼·格里芬·戴维斯 Roman Griffin Davis
      莉莉-罗丝·德普 Lily-Rose Melody Depp
      安娜北凯·沃丽丝 Annabelle Wallis
      露茜·彭偶 Lucy Punch
      柯我庇毪豪威我-巴普蒂斯特 Kirby Howell-Baptiste
      索佩·迪瑞苏 Sope Dirisu
      楚蒂·斯泰勒 Trudie Styler
      霍莉·艾我德 Holly Aird
      鲁弗斯·琼斯 Rufus Jones
      凶我庇毪格里芬·戴维斯 Gilby Griffin Davis
      哈得埭格里芬·戴维斯 Hardy Griffin Davis
      黛维达·麦肯齐 Davida McKenzie

◎标  签 英国 | 圣诞 | 2021 | 笑剧 | 恐惧 | 影戏 | Keira_Knightley | 剧情

◎简  介

  妮我取赛门是冶伉俪,他们邀月囱蓬密切的朋友,前去乡下小屋共进圣诞晚饭。世人正在餐宴终酒行悲、纵情吃苦、互诉心底机密,不外正在笑声背后,统统皆只是相互的强做沉着。由于中活着界行将面对火烧眉毛的恶运,便算再多的礼品取游辖爆皆没法阻遏他玫邻天球上最初一夜的运气……
Video
ID : 1
ID in the original source medium : 4113 (0x1011)
Format : HEVC
Format/Info : High Efficiency Video Coding
Format profile : Main 10@L5.1@High
HDR format : SMPTE ST 2086, HDR10 compatible
Codec ID : V_MPEGH/ISO/HEVC
Duration : 1 h 30 min
Bit rate : 68.2 Mb/s
Width : 3 840 pixels
Height : 2 160 pixels
Display aspect ratio : 16:9
Frame rate mode : Constant
Frame rate : 23.976 (24000/1001/189150) FPS
Color space : YUV
Chroma subsampling : 4:2:0 (Type 2)
Bit depth : 10 bits
Bits/(Pixel*Frame) : 0.343
Stream size : 43.1 GiB (94%)
Language : English
Default : No
Forced : No
Color range : Limited
Color primaries : BT.2020
Transfer characteristics : PQ
Matrix coefficients : BT.2020 non-constant
Mastering display color primaries : Display P3
Mastering display luminance : min: 0.0010 cd/m2, max: 1000 cd/m2
Maximum Content Light Level : 318 cd/m2
Maximum Frame-Average Light Level : 112 cd/m2
Original source medium : Blu-ray

Audio #1
ID : 2
ID in the original source medium : 4353 (0x1101)
Format : DTS XLL
Format/Info : Digital Theater Systems
Commercial name : DTS-HD Master Audio
Codec ID : A_DTS
Duration : 1 h 30 min
Bit rate mode : Variable
Bit rate : 1 737 kb/s
Channel(s) : 6 channels
Channel layout : C L R Ls Rs LFE
Sampling rate : 48.0 kHz
Frame rate : 93.750 FPS (512 SPF)
Bit depth : 16 bits
Compression mode : Lossless
Stream size : 1.10 GiB (2%)
Title : DTS-HD MA 5.1
Language : English
Default : Yes
Forced : No
Original source medium : Blu-ray

Audio #2
ID : 3
Format : AC-3
Format/Info : Audio Coding 3
Commercial name : Dolby Digital
Codec ID : A_AC3
Duration : 1 h 30 min
Bit rate mode : Constant
Bit rate : 640 kb/s
Channel(s) : 6 channels
Channel layout : L R C LFE Ls Rs
Sampling rate : 48.0 kHz
Frame rate : 31.250 FPS (1536 SPF)
Compression mode : Lossy
Stream size : 414 MiB (1%)
Title : DD 5.1
Language : English
Service kind : Complete Main
Default : No
Forced : No

Audio #3
ID : 4
ID in the original source medium : 4352 (0x1100)
Format : DTS XLL
Format/Info : Digital Theater Systems
Commercial name : DTS-HD Master Audio
Codec ID : A_DTS
Duration : 1 h 30 min
Bit rate mode : Variable
Bit rate : 1 759 kb/s
Channel(s) : 6 channels
Channel layout : C L R Ls Rs LFE
Sampling rate : 48.0 kHz
Frame rate : 93.750 FPS (512 SPF)
Bit depth : 16 bits
Compression mode : Lossless
Stream size : 1.11 GiB (2%)
Title : DTS-HD MA 5.1
Language : German
Default : No
Forced : No
Original source medium : Blu-ray

Text #1
ID : 5
Format : UTF-8
Codec ID : S_TEXT/UTF8
Codec ID/Info : UTF-8 Plain Text
Duration : 1 h 20 min
Bit rate : 58 b/s
Count of elements : 1308
Stream size : 34.7 KiB (0%)
Language : English
Default : Yes
Forced : No

Text #2
ID : 6
ID in the original source medium : 4768 (0x12A0)
Format : PGS
Muxing mode : zlib
Codec ID : S_HDMV/PGS
Codec ID/Info : Picture based subtitle format used on BDs/HD-DVDs
Duration : 1 h 21 min
Bit rate : 35.0 kb/s
Count of elements : 2204
Stream size : 20.4 MiB (0%)
Language : German
Default : No
Forced : No
Original source medium : Blu-ray

Text #3
ID : 7
ID in the original source medium : 4769 (0x12A1)
Format : PGS
Muxing mode : zlib
Codec ID : S_HDMV/PGS
Codec ID/Info : Picture based subtitle format used on BDs/HD-DVDs
Duration : 2 s 691 ms
Bit rate : 32.8 kb/s
Count of elements : 2
Stream size : 10.8 KiB (0%)
Language : German
Default : No
Forced : No
Original source medium : Blu-ray

Menu
00:00:00.000 : en:Chapter 01
00:07:18.354 : en:Chapter 02
00:14:45.759 : en:Chapter 03
00:23:51.263 : en:Chapter 04
00:29:02.907 : en:Chapter 05
00:43:00.369 : en:Chapter 06
00:48:57.476 : en:Chapter 07
00:53:56.942 : en:Chapter 08
01:03:24.717 : en:Chapter 09
01:07:46.437 : en:Chapter 10
01:15:11.632 : en:Chapter 11
01:24:22.640 : en:Chapter 12
01:30:17.870 : en:Chapter 13





旅客,假如您要检察本帖躲藏内容请复兴




上一篇:华尔街之狼/华尔街狼人.2013.2160p.BluRay.REMUX.HEVC.DTS-HD.MA.5.1-FGT 78.87GB
下一篇:亡命驾驶/极速罪驾.2011.2160p.BluRay.REMUX.HEVC.DTS-HD.MA.5.1-FGT 55.87GB

精彩评论1

微信_72eb0a2db9 新证会员 显示全部楼层 发表于 2021-12-23 17:54:57
谢谢!!谢谢主!
您需要登录后才可以回帖 登录 | 立即注册 用百度帐号登录

本版积分规则

首发之家社区成立于2011年3月,内容涉及3C家电、数码生活智能电视,股票软件,4K,体育,软件,教育,游戏等资源指标公式论坛。
  • 官方手机版

  • 抖音号

  • 商务合作

  • Powered by Discuz! X3.4 | Copyright © 2011-2021, Tencent Cloud. | 首发之家社区
  • |网站地图 | mp4d@qq.com|小黑屋|手机版|