返回顶部
  • 发帖数1669
  • 粉丝19

此人很懒,什么也没有留下

  • 最佳新人

  • 活跃会员

    经常参与各类话题的讨论,发帖内容较有主见
  • 热心会员

    经常帮助其他会员答疑
  • 灌水之王

    经常在论坛发帖,且发帖量较大
  • 社区劳模

    长期对论坛的繁荣而不断努力,或发帖主题数500以上
  • 终身成就

    为论坛做出突出贡献的会员
  • QQ绑定

    QQ绑定会员
  • 明星会员

    在论坛有很高知名度会员
  • 沙发达人

    抢沙总数达到100
  • 光悦帅哥

    上传了自己真人秀照片就可以获得勋章哦~
  • 实名认证

    通过身份证实名认证
  • 爆料达人

    发帖爆料达人
开启左侧

[剧情] 华尔街之狼/华尔街狼人.2013.2160p.BluRay.REMUX.HEVC.DTS-HD.MA.5.1-FGT 78.87GB

[复制链接]
dolgm 高级首粉 显示全部楼层 发表于 2021-12-23 00:48:44 |阅读模式 打印 上一主题 下一主题
帖子完好题目:华我街之狼/华我街狼人 The.Wolf.of.Wall.Street.2013.2160p.BluRay.REMUX.HEVC.DTS-HD.MA.5.1-FGT 78.87GB



6d345dd484f6e16b7f9234e2fe3a4f16.jpeg

◎译  名 华我街之狼/华我街狼人(港)
◎片  名 The Wolf of Wall Street
◎年  代 2013
◎产  天 好国
◎类  别 剧情 / 列传 / 立功
◎语  行 英语,法语
◎上映日期 2013-12-17(纽约尾映) / 2013-12-25(好国)
◎豆瓣评分 8.0/10 from 337929 users
◎豆瓣链接 https://movie.douban.com/subject/2997076/
◎片  少 180分钟
◎导  演 马丁·斯科塞斯 Martin Scorsese
◎编  剧 特伦斯·温特 Terence Winter / 乔丹·贝我祸特 Jordan Belfort
◎主  演 莱昂纳多·迪卡普里奥 Leonardo DiCaprio
      乔纳·希我 Jonah Hill
      玛格特·罗比 Margot Robbie
      马建·麦康纳 Matthew McConaughey
      凯我·钱德勒 Kyle Chandler
      罗伯·莱纳 Rob Reiner
      乔·专恩瑟 Jon Bernthal
      让·杜俗我丹 Jean Dujardin
      渴攀里斯汀·米利欧缇 Cristin Milioti
      卡塔莉挠毪凯斯 Katarina Cas
      斯派克·琼斯 Spike Jonze
      乔恩·费儒 Jon Favreau
      托马斯·米德蒂偶 Thomas Middleditch
      阿俗·卡什 Aya Cash
      开伊·惠格姆 Shea Whigham
      乔安挠毪林莉 Joanna Lumley
      肯僧斯·崔 Kenneth Choi
      布莱特·舒伏德 Bret Shuford
      瓦德·霍我顿 Ward Horton
      伊桑·苏普利 Ethan Suplee
      艾米莉·特里梅果 Emily Tremaine
      杰克·霍妇曼 Jake Hoffman
      乔丹·贝我祸特 Jordan Belfort
      爱德华·赫曼 Edward Herrmann
      Ashley Blankenship Ashley Blankenship
      斯蒂芬妮·库我特祖巴 Stephanie Kurtzuba
      克斯汀·埃伯索我 Christine Ebersole
      P·J·伯恩 P.J. Byrne
      弗兰·勒专维茨 Fran Lebowitz
      泰德·格里芬 Ted Griffin
      罗伯特·克洛赫赛 Robert Clohessy
      里兹万·曼凶 Rizwan Manji
      凯瑟琳·科廷 Catherine Curtin
      唐僧·科山边茨 Donnie Keshawarz
      亨利·泽布罗妇斯基 Henry Zebrowski
      J.C.麦恳 J.C. MacKenzie
      布莱恩·萨卡 Brian Sacca
      迈克我·布莱恩·弗兰偶 Michael Bryan French
      阿什莉·阿特金森 Ashlie Atkinson
      Kellen Moriarty Kellen Moriarty
      Sandra Nelson Sandra Nelson
      特雷西·弗里德曼 Tracy Friedman
      迪马·艾特肯 Deema Aitken
      何塞·推受·罗萨里奥 José Ramón Rosario
      丹僧·A·阿痹莹瑟我 Danny A. Abeckaser
      约翰·贝我曼 John Behlmann
      布莱恩·伯顿 Bryan Burton
      Sky Watersend Sky Watersend

◎标  签 莱昂纳多·迪卡普里奥 | 好国 | 贸易 | 剧情 | 金融 | 列传 | 好国影戏 | 立功

◎简  介

  正在危急四伏的投资界,掌管史崔顿·奥克受公司的乔丹·贝我祸特(莱昂纳多·迪卡普里奥 Leonardo DiCaprio 饰)糊口侈糜、气力薄弱。1987年,22岁的乔丹进进罗斯柴我德公司,从接线员做起,正在初级掮客人马克(马建·麦康纳 Matthew McConaughey 饰)辅导下,进进了股帽掮客饶驿谦福寿膏战愿望的天下,半年后果“玄色礼拜一”,乔丹转投奔销售“便士股帽”的小公司,凭仗巧言如簧得到胜利,取邻人唐僧(乔纳·希我 Jonah Hill 饰)战一班伴侣另坐流派,游走正在灰色天带赢利颇歉,获称“华我街之狼”,但是,FBI曾经开端留神他……
  
  本片按照前华我叫猩帽掮客人乔丹·贝我祸特的小我私家自传《华我街之狼》改编。

◎获奖状况

  第86届奥斯卡金像奖 ?(2014)
  最好影片(提名) 乔伊·麦克法兰?/?马丁·斯科塞斯?/?莱昂纳多·迪卡普里奥?/?艾玛·特林格·科斯考妇
  最好导演(提名) 马丁·斯科塞斯
  最好男配角(提名) 莱昂纳多·迪卡普里奥
  最好囊射角(提名) 乔纳·希我
  最好改编脚本(提名) 特伦斯·温特
  
  第71届金球奖 ?(2014)
  影戏类最好音乐/笑剧片(提名)
  影戏类音乐/笑剧片最好男配角 莱昂纳多·迪卡普里奥
  
  第23届MTV影戏奖 ?(2014)
  MTV影戏奖年度影戏(提名)
  MTV影戏奖最好笑剧演出(提名) 乔纳·希我
  MTV影戏奖最好淖磔员(提名) 莱昂纳多·迪卡普里奥
  MTV影戏奖打破演出奖(提名) 玛格特·罗比
  MTV影戏奖最好银幕伙伴(提名) 莱昂纳多·迪卡普里奥?/?乔纳·希我
  MTV影戏奖最好赤膊演出(提名) 莱昂纳多·迪卡普里奥
  MTV影戏奖最呆若木鸡局面(提名)
  MTV影戏奖最好音乐场景(提名) 莱昂纳多·迪卡普里奥
  
  第66届好国导演工会奖 ?(2014)
  最好影戏导演(提名) 马丁·斯科塞斯
  
  第66届好国编剧工会奖 ?(2014)
  影戏奖最好改编脚本(提名) 特伦斯·温特
  
  第25届好国造片野生会奖 ?(2014)
  最好影戏造片裙(提名) 乔伊·麦克法兰?/?RizaAziz?/?艾玛·特林格·科斯考妇
  
  第64届好国剪辑工会奖 ?(2014)
  音乐/笑剧片最好剪辑(提名) 塞我玛·斯昆梅克
  
  第12届好国视觉结果协会奖 ?(2014)
  最好影戏帮助视觉结果(提名) 乔·法雷我?/?马克·推塞我?/?罗伯特·莱减托
  
  第85届好国国度批评协会奖 ?(2014)
  最好改编脚本
  年度佳片
  
  第19届好国批评家挑选影戏奖 ?(2014)
  最好影片(提名)
  最好导演(提名) 马丁·斯科塞斯
  最好瓤(提名)
  笑剧片最好男配角 莱昂纳多·迪卡普里奥
  最好改编脚本(提名) 特伦斯·温特
  最好剪辑(提名) 塞我玛·斯昆梅克
  
  第14届好国影戏教会奖 ?(2013)
  年度佳片
  
  第18届金卫星奖 ?(2014)
  影戏部分最好剧情片(提名)
  影戏部分最好导演(提名) 马丁·斯科塞斯
  影戏部分剧情片最好男配角(提名) 莱昂纳多·迪卡普里奥
  影戏部分最好改编脚本(提名) 特伦斯·温特
  影戏部分最好剪辑 塞我玛·斯昆梅克
  
  第12届华衰顿影评人协会奖 ?(2013)
  最好导演(提名) 马丁·斯科塞斯
  最好男配角(提名) 莱昂纳多·迪卡普里奥
  最好改编脚本(提名)
  最好剪辑(提名)
  
  第34届伦敦影评人协会奖 ?(2014)
  年度影戏(提名)
  年度导演(提名) 马丁·斯科塞斯
  年度编剧(提名) 特伦斯·温特
  年度男配角(提名) 莱昂纳多·迪卡普里奥
  
  第34届波士顿影评人协会奖 ?(2013)
  最好影片(提名)
  最好导演(提名) 马丁·斯科塞斯
  最好男配角(提名) 莱昂纳多·迪卡普里奥
  最好脚本(提名) 特伦斯·温特
  最好剪辑(提名) 塞我玛·斯昆梅克
  最好音乐(提名) 霍华德·肖
  
  第22届东北影评人协会奖 ?(2013)
  十年夜佳片
  
  第1届豆瓣影戏年度榜单 ?(2014)
  最受存眷的返量影戏(提名)
  
  第4届豆瓣影戏鑫像奖 ?(2014)
  鑫豆单位最好影片(中语)(提名)
  鑫豆单位最好导演(中语)(提名) 马丁·斯科塞斯
  鑫豆单位最好淖磔员(中语) 莱昂纳多·迪卡普里奥
  鑫豆单位最好笑剧片(提名)
Video
ID : 1
ID in the original source medium : 4113 (0x1011)
Format : HEVC
Format/Info : High Efficiency Video Coding
Format profile : Main 10@L5.1@High
HDR format : Dolby Vision, Version 1.0, dvhe.07.06, BL+EL+RPU, Blu-ray compatible / SMPTE ST 2086, HDR10 compatible
Codec ID : V_MPEGH/ISO/HEVC
Duration : 2 h 59 min
Bit rate : 57.4 Mb/s
Width : 3 840 pixels
Height : 2 160 pixels
Display aspect ratio : 16:9
Frame rate mode : Constant
Frame rate : 23.976 (24000/1001/189150) FPS
Color space : YUV
Chroma subsampling : 4:2:0 (Type 2)
Bit depth : 10 bits
Bits/(Pixel*Frame) : 0.289
Stream size : 72.1 GiB (91%)
Language : English
Default : No
Forced : No
Color range : Limited
Color primaries : BT.2020
Transfer characteristics : PQ
Matrix coefficients : BT.2020 non-constant
Mastering display color primaries : Display P3
Mastering display luminance : min: 0.0001 cd/m2, max: 1000 cd/m2
Original source medium : Blu-ray

Audio #1
ID : 2
ID in the original source medium : 4352 (0x1100)
Format : DTS XLL
Format/Info : Digital Theater Systems
Commercial name : DTS-HD Master Audio
Codec ID : A_DTS
Duration : 2 h 59 min
Bit rate mode : Variable
Bit rate : 3 400 kb/s
Channel(s) : 6 channels
Channel layout : C L R Ls Rs LFE
Sampling rate : 48.0 kHz
Frame rate : 93.750 FPS (512 SPF)
Bit depth : 24 bits
Compression mode : Lossless
Stream size : 4.27 GiB (5%)
Title : DTS-HD MA 5.1
Language : English
Default : Yes
Forced : No
Original source medium : Blu-ray

Audio #2
ID : 3
Format : AC-3
Format/Info : Audio Coding 3
Commercial name : Dolby Digital
Codec ID : A_AC3
Duration : 2 h 59 min
Bit rate mode : Constant
Bit rate : 640 kb/s
Channel(s) : 6 channels
Channel layout : L R C LFE Ls Rs
Sampling rate : 48.0 kHz
Frame rate : 31.250 FPS (1536 SPF)
Compression mode : Lossy
Stream size : 823 MiB (1%)
Title : DD 5.1
Language : English
Service kind : Complete Main
Default : No
Forced : No

Audio #3
ID : 4
ID in the original source medium : 4353 (0x1101)
Format : AC-3
Format/Info : Audio Coding 3
Commercial name : Dolby Digital
Codec ID : A_AC3
Duration : 2 h 59 min
Bit rate mode : Constant
Bit rate : 640 kb/s
Channel(s) : 6 channels
Channel layout : L R C LFE Ls Rs
Sampling rate : 48.0 kHz
Frame rate : 31.250 FPS (1536 SPF)
Compression mode : Lossy
Stream size : 823 MiB (1%)
Title : DD 5.1
Language : English
Service kind : Complete Main
Default : No
Forced : No
Original source medium : Blu-ray

Audio #4
ID : 5
ID in the original source medium : 4354 (0x1102)
Format : AC-3
Format/Info : Audio Coding 3
Commercial name : Dolby Digital
Codec ID : A_AC3
Duration : 2 h 59 min
Bit rate mode : Constant
Bit rate : 640 kb/s
Channel(s) : 6 channels
Channel layout : L R C LFE Ls Rs
Sampling rate : 48.0 kHz
Frame rate : 31.250 FPS (1536 SPF)
Compression mode : Lossy
Stream size : 823 MiB (1%)
Title : DD 5.1
Language : French
Service kind : Complete Main
Default : No
Forced : No
Original source medium : Blu-ray

Text #1
ID : 6
Format : UTF-8
Codec ID : S_TEXT/UTF8
Codec ID/Info : UTF-8 Plain Text
Duration : 2 h 52 min
Bit rate : 99 b/s
Count of elements : 3935
Stream size : 126 KiB (0%)
Language : English
Default : Yes
Forced : No

Text #2
ID : 7
Format : UTF-8
Codec ID : S_TEXT/UTF8
Codec ID/Info : UTF-8 Plain Text
Duration : 2 h 53 min
Bit rate : 101 b/s
Count of elements : 4121
Stream size : 130 KiB (0%)
Title : SDH
Language : English
Default : No
Forced : No

Text #3
ID : 8
ID in the original source medium : 4768 (0x12A0)
Format : PGS
Muxing mode : zlib
Codec ID : S_HDMV/PGS
Codec ID/Info : Picture based subtitle format used on BDs/HD-DVDs
Duration : 2 h 52 min
Bit rate : 62.6 kb/s
Count of elements : 7460
Stream size : 77.1 MiB (0%)
Language : English
Default : No
Forced : No
Original source medium : Blu-ray

Text #4
ID : 9
ID in the original source medium : 4769 (0x12A1)
Format : PGS
Muxing mode : zlib
Codec ID : S_HDMV/PGS
Codec ID/Info : Picture based subtitle format used on BDs/HD-DVDs
Duration : 2 h 53 min
Bit rate : 66.3 kb/s
Count of elements : 8294
Stream size : 82.4 MiB (0%)
Title : SDH
Language : English
Default : No
Forced : No
Original source medium : Blu-ray

Text #5
ID : 10
ID in the original source medium : 4770 (0x12A2)
Format : PGS
Muxing mode : zlib
Codec ID : S_HDMV/PGS
Codec ID/Info : Picture based subtitle format used on BDs/HD-DVDs
Duration : 2 h 52 min
Bit rate : 57.6 kb/s
Count of elements : 8158
Stream size : 71.0 MiB (0%)
Language : French
Default : No
Forced : No
Original source medium : Blu-ray

Text #6
ID : 11
ID in the original source medium : 4770 (0x12A2)
Format : PGS
Muxing mode : zlib
Codec ID : S_HDMV/PGS
Codec ID/Info : Picture based subtitle format used on BDs/HD-DVDs
Duration : 2 h 49 min
Bit rate : 172 b/s
Count of elements : 26
Stream size : 215 KiB (0%)
Title : FORCED
Language : French
Default : No
Forced : No
Original source medium : Blu-ray

Menu
00:00:00.000 : en:Chapter 01
00:07:56.225 : en:Chapter 02
00:14:18.524 : en:Chapter 03
00:21:31.790 : en:Chapter 04
00:32:08.760 : en:Chapter 05
00:40:15.162 : en:Chapter 06
00:48:33.911 : en:Chapter 07
00:55:22.110 : en:Chapter 08
01:01:56.713 : en:Chapter 09
01:07:01.100 : en:Chapter 10
01:11:29.576 : en:Chapter 11
01:19:50.535 : en:Chapter 12
01:29:07.425 : en:Chapter 13
01:37:48.070 : en:Chapter 14
01:45:12.597 : en:Chapter 15
01:54:40.665 : en:Chapter 16
02:03:20.810 : en:Chapter 17
02:07:28.682 : en:Chapter 18
02:17:13.475 : en:Chapter 19
02:25:26.134 : en:Chapter 20
02:32:09.286 : en:Chapter 21
02:36:39.390 : en:Chapter 22
02:44:19.933 : en:Chapter 23
02:53:04.957 : en:Chapter 24





旅客,假如您要检察本帖躲藏内容请复兴




上一篇:毒液2.2021.2160p.BluRay.HEVC.TrueHD.7.1.Atmos-MT 54.60G
下一篇:平安夜/最后一个平安夜.2021.2160p.BluRay.REMUX.HEVC.DTS-HD.MA.5.1-FGT 45.75GB
您需要登录后才可以回帖 登录 | 立即注册 用百度帐号登录

本版积分规则

首发之家社区成立于2011年3月,内容涉及3C家电、数码生活智能电视,股票软件,4K,体育,软件,教育,游戏等资源指标公式论坛。
  • 官方手机版

  • 抖音号

  • 商务合作

  • Powered by Discuz! X3.4 | Copyright © 2011-2021, Tencent Cloud. | 首发之家社区
  • |网站地图 | mp4d@qq.com|小黑屋|手机版|