返回顶部
  • 发帖数1669
  • 粉丝19

此人很懒,什么也没有留下

  • 最佳新人

  • 活跃会员

    经常参与各类话题的讨论,发帖内容较有主见
  • 热心会员

    经常帮助其他会员答疑
  • 灌水之王

    经常在论坛发帖,且发帖量较大
  • 社区劳模

    长期对论坛的繁荣而不断努力,或发帖主题数500以上
  • 终身成就

    为论坛做出突出贡献的会员
  • QQ绑定

    QQ绑定会员
  • 明星会员

    在论坛有很高知名度会员
  • 沙发达人

    抢沙总数达到100
  • 光悦帅哥

    上传了自己真人秀照片就可以获得勋章哦~
  • 实名认证

    通过身份证实名认证
  • 爆料达人

    发帖爆料达人
开启左侧

[喜剧] 克朗普斯/圣诞妖怪:坎卜斯.2015.UNRATED.2160p.BluRay.REMUX. 68.61GB

[复制链接]
dolgm 高级首粉 显示全部楼层 发表于 2021-12-23 00:47:13 |阅读模式 打印 上一主题 下一主题
帖子完好题目:渴攀朗普斯/圣诞魔鬼:坎卜斯 Krampus.2015.UNRATED.2160p.BluRay.REMUX.HEVC.DTS-HD.MA.TrueHD.7.1.Atmos-FGT 68.61GB

136c6217952b25ab5d0682250be486a4.jpeg



◎译  名 渴攀朗普斯/圣诞魔鬼:坎卜斯(台)/坎卜斯
◎片  名 Krampus
◎年  代 2015
◎产  天 好国
◎类  别 笑剧 / 恐惧 / 奇异
◎语  行 英语
◎上映日期 2015-12-04(好国)
◎豆瓣评分 6.1/10 from 4103 users
◎豆瓣链接 https://movie.douban.com/subject/25962790/
◎片  少 98分钟
◎导  演 迈克我·讲赫蒂 Michael Dougherty
◎编  剧 托德·凯西 Todd Casey / 迈克我·讲赫蒂 Michael Dougherty / 扎克·希我兹 Zach Shields
◎主  演 亚当·斯空关 Adam Scott
      托妮·科莱特 Toni Collette
      艾莉森·托我曼 Allison Tolman
      年夜卫·科恩查内 David Koechner
      康查塔·费雷我 Conchata Ferrell
      恩杰伊·安东僧 Emjay Anthony
      斯蒂芬妮娅·欧文 Stefania Owen
      渴攀里丝塔·施泰德 Krista Stadler
      凶迪恩·埃默里 Gideon Emery
      艾薇·乔治 Ivy George
      贾斯汀·罗兰 Justin Roiland
      柯蒂斯·沃威我 Curtis Vowell

◎标  签 恐惧 | 好国 | 惊悚 | 圣诞节 | 奇异 | 怪道 | 笑剧 | 2015

◎简  介

  恿壳一年圣诞节,陪伴着愉快暖和的圣诞歌直,人枚惕狂涌进超市抢购圣诞节猎物,为此不吝年夜挨脱手,仪态尽得。颠末一轮混战,汤慕报亚当·斯空关 Adam Scott 饰)战莎推(托妮·科莱特 Toni Collette 饰)那对佳耦扛着年夜包小包,历经艰辛,总算带着费事不竭的一单后代贝丝(Stefania LaVie Owen 饰)战麦克斯(恩杰伊·安东僧 Emjay Anthony 饰)回抵家中。晚饭工夫,性情各别的亲戚们定时到去,让那个家里热烈的同时也给仆人们带去没有小的懊恼。小麦克斯方才战人挨过一架,由于此外孩子道圣诞白叟化为乌有,饭桌上亲戚家的孩子搬弄的道法更令他拊膺切齿。当早,诡同的冰血暴袭去,奥秘的怪物突降人世,似乎要给没有信赖圣诞白叟存正在的愚笨仁攀类以严峻的处罚……
  
  本片按照德百姓间传道改编。
Video
ID : 1
ID in the original source medium : 4113 (0x1011)
Format : HEVC
Format/Info : High Efficiency Video Coding
Format profile : Main 10@L5.1@High
HDR format : Dolby Vision, Version 1.0, dvhe.07.06, BL+EL+RPU, Blu-ray compatible / SMPTE ST 2086, HDR10 compatible
Codec ID : V_MPEGH/ISO/HEVC
Duration : 1 h 42 min
Bit rate : 87.8 Mb/s
Width : 3 840 pixels
Height : 2 160 pixels
Display aspect ratio : 16:9
Frame rate mode : Constant
Frame rate : 24.000 FPS
Color space : YUV
Chroma subsampling : 4:2:0 (Type 2)
Bit depth : 10 bits
Bits/(Pixel*Frame) : 0.441
Stream size : 62.7 GiB (91%)
Language : English
Default : No
Forced : No
Color range : Limited
Color primaries : BT.2020
Transfer characteristics : PQ
Matrix coefficients : BT.2020 non-constant
Mastering display color primaries : Display P3
Mastering display luminance : min: 0.0001 cd/m2, max: 1000 cd/m2
Maximum Content Light Level : 10000 cd/m2
Maximum Frame-Average Light Level : 635 cd/m2
Original source medium : Blu-ray

Audio #1
ID : 2
ID in the original source medium : 4352 (0x1100)
Format : MLP FBA 16-ch
Format/Info : Meridian Lossless Packing FBA with 16-channel presentation
Commercial name : Dolby TrueHD with Dolby Atmos
Codec ID : A_TRUEHD
Duration : 1 h 42 min
Bit rate mode : Variable
Bit rate : 3 650 kb/s
Maximum bit rate : 6 618 kb/s
Channel(s) : 8 channels
Channel layout : L R C LFE Ls Rs Lb Rb
Sampling rate : 48.0 kHz
Frame rate : 1 200.000 FPS (40 SPF)
Bit depth : 24 bits
Compression mode : Lossless
Stream size : 2.61 GiB (4%)
Title : TrueHD 7.1 Atmos
Language : English
Default : Yes
Forced : No
Original source medium : Blu-ray
Number of dynamic objects : 11
Bed channel count : 1 channel
Bed channel configuration : LFE

Audio #2
ID : 3
Format : DTS XLL
Format/Info : Digital Theater Systems
Commercial name : DTS-HD Master Audio
Codec ID : A_DTS
Duration : 1 h 42 min
Bit rate mode : Variable
Bit rate : 3 892 kb/s
Channel(s) : 8 channels
Channel layout : C L R LFE Lb Rb Lss Rss
Sampling rate : 48.0 kHz
Frame rate : 93.750 FPS (512 SPF)
Bit depth : 24 bits
Compression mode : Lossless
Stream size : 2.78 GiB (4%)
Title : DTS-HD MA 7.1
Language : English
Default : No
Forced : No

Audio #3
ID : 4
ID in the original source medium : 4352 (0x1100)
Format : AC-3
Format/Info : Audio Coding 3
Commercial name : Dolby Digital
Codec ID : A_AC3
Duration : 1 h 42 min
Bit rate mode : Constant
Bit rate : 384 kb/s
Channel(s) : 6 channels
Channel layout : L R C LFE Ls Rs
Sampling rate : 48.0 kHz
Frame rate : 31.250 FPS (1536 SPF)
Compression mode : Lossy
Stream size : 281 MiB (0%)
Title : DD 5.1
Language : English
Service kind : Complete Main
Default : No
Forced : No
Original source medium : Blu-ray

Audio #4
ID : 5
ID in the original source medium : 4354 (0x1102)
Format : AC-3
Format/Info : Audio Coding 3
Commercial name : Dolby Digital
Codec ID : A_AC3
Duration : 1 h 42 min
Bit rate mode : Constant
Bit rate : 192 kb/s
Channel(s) : 2 channels
Channel layout : L R
Sampling rate : 48.0 kHz
Frame rate : 31.250 FPS (1536 SPF)
Compression mode : Lossy
Stream size : 141 MiB (0%)
Title : DD 2.0
Language : English
Service kind : Complete Main
Default : No
Forced : No
Original source medium : Blu-ray

Text #1
ID : 6
Format : UTF-8
Codec ID : S_TEXT/UTF8
Codec ID/Info : UTF-8 Plain Text
Duration : 1 h 41 min
Bit rate : 50 b/s
Count of elements : 1297
Stream size : 37.1 KiB (0%)
Language : English
Default : Yes
Forced : No

Text #2
ID : 7
Format : UTF-8
Codec ID : S_TEXT/UTF8
Codec ID/Info : UTF-8 Plain Text
Duration : 1 h 42 min
Bit rate : 79 b/s
Count of elements : 1957
Stream size : 59.5 KiB (0%)
Title : SDH
Language : English
Default : No
Forced : No

Text #3
ID : 8
ID in the original source medium : 4768 (0x12A0)
Format : PGS
Muxing mode : zlib
Codec ID : S_HDMV/PGS
Codec ID/Info : Picture based subtitle format used on BDs/HD-DVDs
Duration : 1 h 42 min
Bit rate : 49.5 kb/s
Count of elements : 3948
Stream size : 36.1 MiB (0%)
Language : English
Default : No
Forced : No
Original source medium : Blu-ray

Menu
00:00:00.000 : en:Chapter 01
00:11:43.291 : en:Chapter 02
00:20:10.333 : en:Chapter 03
00:29:03.083 : en:Chapter 04
00:36:45.375 : en:Chapter 05
00:44:35.041 : en:Chapter 06
00:52:25.041 : en:Chapter 07
01:00:09.500 : en:Chapter 08
01:08:01.625 : en:Chapter 09
01:15:11.125 : en:Chapter 10
01:23:01.375 : en:Chapter 11
01:32:08.333 : en:Chapter 12



旅客,假如您要检察本帖躲藏内容请复兴


旅客,假如您要检察本帖躲藏内容请复兴




上一篇:终极标靶.1993.2160p.BluRay.REMUX.HEVC.DTS-HD.MA.5.1-FGT 62.00GB
下一篇:毒液2.2021.2160p.BluRay.HEVC.TrueHD.7.1.Atmos-MT 54.60G
您需要登录后才可以回帖 登录 | 立即注册 用百度帐号登录

本版积分规则

首发之家社区成立于2011年3月,内容涉及3C家电、数码生活智能电视,股票软件,4K,体育,软件,教育,游戏等资源指标公式论坛。
  • 官方手机版

  • 抖音号

  • 商务合作

  • Powered by Discuz! X3.4 | Copyright © 2011-2021, Tencent Cloud. | 首发之家社区
  • |网站地图 | mp4d@qq.com|小黑屋|手机版|