返回顶部
  • 发帖数1669
  • 粉丝19

此人很懒,什么也没有留下

  • 最佳新人

  • 活跃会员

    经常参与各类话题的讨论,发帖内容较有主见
  • 热心会员

    经常帮助其他会员答疑
  • 灌水之王

    经常在论坛发帖,且发帖量较大
  • 社区劳模

    长期对论坛的繁荣而不断努力,或发帖主题数500以上
  • 终身成就

    为论坛做出突出贡献的会员
  • QQ绑定

    QQ绑定会员
  • 明星会员

    在论坛有很高知名度会员
  • 沙发达人

    抢沙总数达到100
  • 光悦帅哥

    上传了自己真人秀照片就可以获得勋章哦~
  • 实名认证

    通过身份证实名认证
  • 爆料达人

    发帖爆料达人
开启左侧

[动作] 终极标靶.1993.2160p.BluRay.REMUX.HEVC.DTS-HD.MA.5.1-FGT 62.00GB

[复制链接]
dolgm 高级首粉 显示全部楼层 发表于 2021-12-23 00:46:05 |阅读模式 打印 上一主题 下一主题
帖子完好题目:最终标靶 Hard.Target.1993.2160p.BluRay.REMUX.HEVC.DTS-HD.MA.5.1-FGT 62.00GB





998a5a45630c461bae6aa25f202b4f00.jpeg

◎译  名 最终标靶
◎片  名 Hard Target
◎年  代 1993
◎产  天 好国
◎类  别 行动 / 惊悚 / 立功
◎语  行 英语,法语
◎上映日期 1993-11-04(好国)
◎豆瓣评分 6.6/10 from 4119 users
◎豆瓣链接 https://movie.douban.com/subject/1295871/
◎片  少 97分钟
◎导  演 吴宇森 John Woo
◎编  剧 查克·费我 Chuck Pfarrer
◎主  演 尚格·云顿 Jean-Claude Van Damme
      查克·费我 Chuck Pfarrer
      阿诺德·沃斯洛 Arnold Vosloo
      兰斯·亨利拷舡 Lance Henriksen
      杨茜·巴特勒 Yancy Butler
      威利·C·卡彭特 Willie C. Carpenter
      卡斯·莱受斯 Kasi Lemmons
      埃利奥特·基纳 Eliott Keener
      马科·圣约翰 Marco St. John
      泰德·雷米 Ted Raimi
      史文-欧我·托我森 Sven-Ole Thorsen
      墨我斯·西我维斯特 Jules Sylvester
      威我祸德·布利姆雷 Wilford Brimley
      Robert Pavlovich Robert Pavlovich
      Joe Warfield Joe Warfield

◎标  签 行动 | 吴宇森 | 尚格·云顿 | 好国 | 好国影戏 | 1993 | 暴力 | 立功

◎简  介

  娜塔莎(杨茜?巴特勒 Yancy Butler 饰)年青富有,此次特地去到新奥我良首戆找本人得集多年的退伍的女亲。但是她刚踩进那个都会便遭到了掳掠,赋闲船员赞斯(尚格?云顿 Jean-Claude Van Damme 饰)临危不惧帮她挨走了强盗。娜塔莎睹赞斯富有公理感,便延聘他为本人寻觅女亲,为存够钱从头出海的赞斯怅然容许。
  
  没有暂,警圆找到了被水烧焦恋滥娜塔莎的女亲。曲觉灵敏的赞斯以为工作没有简朴,他正在现场认真搜索,终究发明了被箭射脱的娜塔莎女亲的兵士牌,从而肯定了娜塔莎女亲是被冉翡杀的。赞斯战娜塔莎经由过程查询拜访,发明了新奥我良市有一伙大盗,他们特地找一些无依托的退伍甲士,然后让富人们像猎杀植物一样猎杀他们。赞斯战娜塔莎决计要将那伙冷漠的大盗乘之于法!
Video
ID : 1
ID in the original source medium : 4113 (0x1011)
Format : HEVC
Format/Info : High Efficiency Video Coding
Format profile : Main 10@L5.1@High
HDR format : Dolby Vision, Version 1.0, dvhe.07.06, BL+EL+RPU, Blu-ray compatible / SMPTE ST 2086, HDR10 compatible
Codec ID : V_MPEGH/ISO/HEVC
Duration : 1 h 39 min
Bit rate : 80.3 Mb/s
Width : 3 840 pixels
Height : 2 160 pixels
Display aspect ratio : 16:9
Frame rate mode : Constant
Frame rate : 24.000 FPS
Color space : YUV
Chroma subsampling : 4:2:0 (Type 2)
Bit depth : 10 bits
Bits/(Pixel*Frame) : 0.403
Stream size : 55.9 GiB (90%)
Language : English
Default : No
Forced : No
Color range : Limited
Color primaries : BT.2020
Transfer characteristics : PQ
Matrix coefficients : BT.2020 non-constant
Mastering display color primaries : Display P3
Mastering display luminance : min: 0.0001 cd/m2, max: 1000 cd/m2
Maximum Content Light Level : 1387 cd/m2
Maximum Frame-Average Light Level : 581 cd/m2
Original source medium : Blu-ray

Audio #1
ID : 2
ID in the original source medium : 4352 (0x1100)
Format : DTS XLL
Format/Info : Digital Theater Systems
Commercial name : DTS-HD Master Audio
Codec ID : A_DTS
Duration : 1 h 39 min
Bit rate mode : Variable
Bit rate : 4 015 kb/s
Channel(s) : 6 channels
Channel layout : C L R Ls Rs LFE
Sampling rate : 48.0 kHz
Frame rate : 93.750 FPS (512 SPF)
Bit depth : 24 bits
Compression mode : Lossless
Stream size : 2.79 GiB (5%)
Title : DTS-HD MA 5.1
Language : English
Default : Yes
Forced : No
Original source medium : Blu-ray

Audio #2
ID : 3
Format : AC-3
Format/Info : Audio Coding 3
Commercial name : Dolby Digital
Codec ID : A_AC3
Duration : 1 h 39 min
Bit rate mode : Constant
Bit rate : 640 kb/s
Channel(s) : 6 channels
Channel layout : L R C LFE Ls Rs
Sampling rate : 48.0 kHz
Frame rate : 31.250 FPS (1536 SPF)
Compression mode : Lossy
Stream size : 456 MiB (1%)
Title : DD 5.1
Language : English
Service kind : Complete Main
Default : No
Forced : No

Audio #3
ID : 4
ID in the original source medium : 4353 (0x1101)
Format : DTS XLL
Format/Info : Digital Theater Systems
Commercial name : DTS-HD Master Audio
Codec ID : A_DTS
Duration : 1 h 39 min
Bit rate mode : Variable
Bit rate : 2 083 kb/s
Channel(s) : 2 channels
Channel layout : L R
Sampling rate : 48.0 kHz
Frame rate : 93.750 FPS (512 SPF)
Bit depth : 24 bits
Compression mode : Lossless
Stream size : 1.45 GiB (2%)
Title : DTS-HD MA 2.0
Language : English
Default : No
Forced : No
Original source medium : Blu-ray

Audio #4
ID : 5
ID in the original source medium : 4354 (0x1102)
Format : DTS XLL
Format/Info : Digital Theater Systems
Commercial name : DTS-HD Master Audio
Codec ID : A_DTS
Duration : 1 h 39 min
Bit rate mode : Variable
Bit rate : 2 017 kb/s
Channel(s) : 2 channels
Channel layout : L R
Sampling rate : 48.0 kHz
Frame rate : 93.750 FPS (512 SPF)
Bit depth : 24 bits
Compression mode : Lossless
Stream size : 1.40 GiB (2%)
Title : DTS-HD MA 2.0
Language : English
Default : No
Forced : No
Original source medium : Blu-ray

Text #1
ID : 6
Format : UTF-8
Codec ID : S_TEXT/UTF8
Codec ID/Info : UTF-8 Plain Text
Duration : 1 h 34 min
Bit rate : 31 b/s
Count of elements : 739
Stream size : 22.0 KiB (0%)
Language : English
Default : Yes
Forced : No

Text #2
ID : 7
Format : UTF-8
Codec ID : S_TEXT/UTF8
Codec ID/Info : UTF-8 Plain Text
Duration : 1 h 37 min
Bit rate : 37 b/s
Count of elements : 1041
Stream size : 27.0 KiB (0%)
Title : SDH
Language : English
Default : No
Forced : No

Text #3
ID : 8
ID in the original source medium : 4768 (0x12A0)
Format : PGS
Muxing mode : zlib
Codec ID : S_HDMV/PGS
Codec ID/Info : Picture based subtitle format used on BDs/HD-DVDs
Duration : 1 h 37 min
Bit rate : 24.0 kb/s
Count of elements : 2088
Stream size : 16.8 MiB (0%)
Language : English
Default : No
Forced : No
Original source medium : Blu-ray

Menu
00:00:00.000 : en:Chapter 01
00:08:21.791 : en:Chapter 02
00:17:59.333 : en:Chapter 03
00:26:02.083 : en:Chapter 04
00:34:13.916 : en:Chapter 05
00:43:11.083 : en:Chapter 06
00:51:54.708 : en:Chapter 07
01:08:54.500 : en:Chapter 08
01:18:49.291 : en:Chapter 09
01:27:18.708 : en:Chapter 10





旅客,假如您要检察本帖躲藏内容请复兴




上一篇:锅匠裁缝士兵间谍/谍影情仇.2011.2160p.BluRay.HEVC.DTS-HD.MA.5.1- 86.74GB
下一篇:克朗普斯/圣诞妖怪:坎卜斯.2015.UNRATED.2160p.BluRay.REMUX. 68.61GB
您需要登录后才可以回帖 登录 | 立即注册 用百度帐号登录

本版积分规则

首发之家社区成立于2011年3月,内容涉及3C家电、数码生活智能电视,股票软件,4K,体育,软件,教育,游戏等资源指标公式论坛。
  • 官方手机版

  • 抖音号

  • 商务合作

  • Powered by Discuz! X3.4 | Copyright © 2011-2021, Tencent Cloud. | 首发之家社区
  • |网站地图 | mp4d@qq.com|小黑屋|手机版|