返回顶部
  • 发帖数1669
  • 粉丝19

此人很懒,什么也没有留下

  • 最佳新人

  • 活跃会员

    经常参与各类话题的讨论,发帖内容较有主见
  • 热心会员

    经常帮助其他会员答疑
  • 灌水之王

    经常在论坛发帖,且发帖量较大
  • 社区劳模

    长期对论坛的繁荣而不断努力,或发帖主题数500以上
  • 终身成就

    为论坛做出突出贡献的会员
  • QQ绑定

    QQ绑定会员
  • 明星会员

    在论坛有很高知名度会员
  • 沙发达人

    抢沙总数达到100
  • 光悦帅哥

    上传了自己真人秀照片就可以获得勋章哦~
  • 实名认证

    通过身份证实名认证
  • 爆料达人

    发帖爆料达人
开启左侧

[剧情] 哭泣的男人.2021.2160p.BluRay.REMUX.HEVC.DTS-HD.MA.5.1-FGT 51.39GB

[复制链接]
dolgm 高级首粉 显示全部楼层 发表于 2021-12-23 00:43:58 |阅读模式 打印 上一主题 下一主题
帖子完好题目:抽泣的汉子 Cry.Macho.2021.2160p.BluRay.REMUX.HEVC.DTS-HD.MA.5.1-FGT 51.39GB

9f16b3213d5dab6f7227be2acd306757.jpeg



◎译  名 抽泣的汉子
◎片  名 Cry Macho
◎年  代 2021
◎产  天 好国
◎类  别 剧情 / 惊悚 / 西部
◎语  行 英语
◎上映日期 2021-09-17(好国/好国收集)
◎豆瓣评分 6.5/10 from 2920 users
◎豆瓣链接 https://movie.douban.com/subject/10523152/
◎片  少 104分钟
◎导  演 克林特·伊斯特伍德 Clint Eastwood
◎编  剧 N·理查德·纳什 N. Richard Nash / 僧克·申克 Nick Schenk
◎主  演 克林特·伊斯特伍德 Clint Eastwood
      德怀特·尤科姆 Dwight Yoakam
      丹僧我V·格推劳 Daniel V. Graulau
      安珀·林恩·阿什利 Amber Lynn Ashley
      布雷特僧·推特利偶 Brytnee Ratledge
      亚历山德推·鲁迪 Alexandra Ruddy
      萨罗·索利斯 Saro Solis
      霍推西欧·减西亚·罗哈斯 Horacio Garcia Rojas
      伊万·埃我北德斯 Ivan Hernandez
      费兰达·黑雷霍推 Fernanda Urrejola
      娜塔莉娅·特推文 Natalia Traven
      马我科·罗德里格斯 Marco Rodríguez
      保罗·阿推约 Paul Alayo
      凶安僧·卡我切蒂 Gianni Calchetti

◎标  签 好国 | 西部 | 公路 | 剧情 | 2021 | 东木年夜爷 | 影戏 | 惊悚

◎简  介

  影片报告了一位驯马师为了养老金战本人停业的牧场老板告竣和谈,从老板富有的朱西哥前妻那边绑架老板11岁的女鬃笤索要赎金。但是老板的前妻正为那个没有良少年初痛,恨不得抛弃那个负担,工作晨着预料以外的标的目的开展……
Video
ID : 1
ID in the original source medium : 4113 (0x1011)
Format : HEVC
Format/Info : High Efficiency Video Coding
Format profile : Main 10@L5.1@High
HDR format : SMPTE ST 2086, HDR10 compatible
Codec ID : V_MPEGH/ISO/HEVC
Duration : 1 h 43 min
Bit rate : 64.0 Mb/s
Width : 3 840 pixels
Height : 2 160 pixels
Display aspect ratio : 16:9
Frame rate mode : Constant
Frame rate : 23.976 (24000/1001/189150) FPS
Color space : YUV
Chroma subsampling : 4:2:0 (Type 2)
Bit depth : 10 bits
Bits/(Pixel*Frame) : 0.322
Stream size : 46.5 GiB (90%)
Writing library : ATEME Titan File 3.9.6 (4.9.6.2)
Language : English
Default : No
Forced : No
Color range : Limited
Color primaries : BT.2020
Transfer characteristics : PQ
Matrix coefficients : BT.2020 non-constant
Mastering display color primaries : Display P3
Mastering display luminance : min: 0.0050 cd/m2, max: 4000 cd/m2
Maximum Content Light Level : 1134 cd/m2
Maximum Frame-Average Light Level : 104 cd/m2
Original source medium : Blu-ray

Audio #1
ID : 2
ID in the original source medium : 4352 (0x1100)
Format : DTS XLL
Format/Info : Digital Theater Systems
Commercial name : DTS-HD Master Audio
Codec ID : A_DTS
Duration : 1 h 43 min
Bit rate mode : Variable
Bit rate : 3 473 kb/s
Channel(s) : 6 channels
Channel layout : C L R Ls Rs LFE
Sampling rate : 48.0 kHz
Frame rate : 93.750 FPS (512 SPF)
Bit depth : 24 bits
Compression mode : Lossless
Stream size : 2.52 GiB (5%)
Title : DTS-HD MA 5.1
Language : English
Default : Yes
Forced : No
Original source medium : Blu-ray

Audio #2
ID : 3
Format : AC-3
Format/Info : Audio Coding 3
Commercial name : Dolby Digital
Codec ID : A_AC3
Duration : 1 h 43 min
Bit rate mode : Constant
Bit rate : 640 kb/s
Channel(s) : 6 channels
Channel layout : L R C LFE Ls Rs
Sampling rate : 48.0 kHz
Frame rate : 31.250 FPS (1536 SPF)
Compression mode : Lossy
Stream size : 476 MiB (1%)
Title : DD 5.1
Language : English
Service kind : Complete Main
Default : No
Forced : No

Audio #3
ID : 4
ID in the original source medium : 4353 (0x1101)
Format : AC-3
Format/Info : Audio Coding 3
Commercial name : Dolby Digital
Codec ID : A_AC3
Duration : 1 h 43 min
Bit rate mode : Constant
Bit rate : 640 kb/s
Channel(s) : 6 channels
Channel layout : L R C LFE Ls Rs
Sampling rate : 48.0 kHz
Frame rate : 31.250 FPS (1536 SPF)
Compression mode : Lossy
Stream size : 476 MiB (1%)
Title : DD 5.1
Language : English
Service kind : Complete Main
Default : No
Forced : No
Original source medium : Blu-ray

Audio #4
ID : 5
ID in the original source medium : 4354 (0x1102)
Format : AC-3
Format/Info : Audio Coding 3
Commercial name : Dolby Digital
Codec ID : A_AC3
Duration : 1 h 43 min
Bit rate mode : Constant
Bit rate : 640 kb/s
Channel(s) : 6 channels
Channel layout : L R C LFE Ls Rs
Sampling rate : 48.0 kHz
Frame rate : 31.250 FPS (1536 SPF)
Compression mode : Lossy
Stream size : 476 MiB (1%)
Title : DD 5.1
Language : English
Service kind : Complete Main
Default : No
Forced : No
Original source medium : Blu-ray

Audio #5
ID : 6
ID in the original source medium : 4355 (0x1103)
Format : AC-3
Format/Info : Audio Coding 3
Commercial name : Dolby Digital
Codec ID : A_AC3
Duration : 1 h 43 min
Bit rate mode : Constant
Bit rate : 640 kb/s
Channel(s) : 6 channels
Channel layout : L R C LFE Ls Rs
Sampling rate : 48.0 kHz
Frame rate : 31.250 FPS (1536 SPF)
Compression mode : Lossy
Stream size : 476 MiB (1%)
Title : DD 5.1
Language : French
Service kind : Complete Main
Default : No
Forced : No
Original source medium : Blu-ray

Audio #6
ID : 7
ID in the original source medium : 4356 (0x1104)
Format : AC-3
Format/Info : Audio Coding 3
Commercial name : Dolby Digital
Codec ID : A_AC3
Duration : 1 h 43 min
Bit rate mode : Constant
Bit rate : 640 kb/s
Channel(s) : 6 channels
Channel layout : L R C LFE Ls Rs
Sampling rate : 48.0 kHz
Frame rate : 31.250 FPS (1536 SPF)
Compression mode : Lossy
Stream size : 476 MiB (1%)
Title : DD 5.1
Language : Spanish
Service kind : Complete Main
Default : No
Forced : No
Original source medium : Blu-ray

Text #1
ID : 8
Format : UTF-8
Codec ID : S_TEXT/UTF8
Codec ID/Info : UTF-8 Plain Text
Duration : 1 h 42 min
Bit rate : 42 b/s
Count of elements : 1312
Stream size : 31.9 KiB (0%)
Language : English
Default : Yes
Forced : No

Text #2
ID : 9
Format : UTF-8
Codec ID : S_TEXT/UTF8
Codec ID/Info : UTF-8 Plain Text
Duration : 1 h 43 min
Bit rate : 51 b/s
Count of elements : 1560
Stream size : 38.9 KiB (0%)
Title : SDH
Language : English
Default : No
Forced : No

Text #3
ID : 10
ID in the original source medium : 4768 (0x12A0)
Format : PGS
Muxing mode : zlib
Codec ID : S_HDMV/PGS
Codec ID/Info : Picture based subtitle format used on BDs/HD-DVDs
Duration : 1 h 43 min
Bit rate : 32.3 kb/s
Count of elements : 3162
Stream size : 23.8 MiB (0%)
Language : English
Default : No
Forced : No
Original source medium : Blu-ray

Text #4
ID : 11
ID in the original source medium : 4769 (0x12A1)
Format : PGS
Muxing mode : zlib
Codec ID : S_HDMV/PGS
Codec ID/Info : Picture based subtitle format used on BDs/HD-DVDs
Duration : 1 h 41 min
Bit rate : 23.6 kb/s
Count of elements : 2356
Stream size : 17.1 MiB (0%)
Language : French
Default : No
Forced : No
Original source medium : Blu-ray

Text #5
ID : 12
ID in the original source medium : 4770 (0x12A2)
Format : PGS
Muxing mode : zlib
Codec ID : S_HDMV/PGS
Codec ID/Info : Picture based subtitle format used on BDs/HD-DVDs
Duration : 1 h 43 min
Bit rate : 25.1 kb/s
Count of elements : 2490
Stream size : 18.5 MiB (0%)
Language : Chinese
Default : No
Forced : No
Original source medium : Blu-ray

Text #6
ID : 13
ID in the original source medium : 4771 (0x12A3)
Format : PGS
Muxing mode : zlib
Codec ID : S_HDMV/PGS
Codec ID/Info : Picture based subtitle format used on BDs/HD-DVDs
Duration : 1 h 43 min
Bit rate : 28.5 kb/s
Count of elements : 2488
Stream size : 21.0 MiB (0%)
Language : Chinese
Default : No
Forced : No
Original source medium : Blu-ray

Text #7
ID : 14
ID in the original source medium : 4772 (0x12A4)
Format : PGS
Muxing mode : zlib
Codec ID : S_HDMV/PGS
Codec ID/Info : Picture based subtitle format used on BDs/HD-DVDs
Duration : 1 h 41 min
Bit rate : 26.9 kb/s
Count of elements : 2488
Stream size : 19.6 MiB (0%)
Language : Chinese
Default : No
Forced : No
Original source medium : Blu-ray

Text #8
ID : 15
ID in the original source medium : 4773 (0x12A5)
Format : PGS
Muxing mode : zlib
Codec ID : S_HDMV/PGS
Codec ID/Info : Picture based subtitle format used on BDs/HD-DVDs
Duration : 1 h 43 min
Bit rate : 21.6 kb/s
Count of elements : 2490
Stream size : 15.9 MiB (0%)
Language : Korean
Default : No
Forced : No
Original source medium : Blu-ray

Text #9
ID : 16
ID in the original source medium : 4774 (0x12A6)
Format : PGS
Muxing mode : zlib
Codec ID : S_HDMV/PGS
Codec ID/Info : Picture based subtitle format used on BDs/HD-DVDs
Duration : 1 h 41 min
Bit rate : 23.6 kb/s
Count of elements : 2316
Stream size : 17.1 MiB (0%)
Language : Spanish
Default : No
Forced : No
Original source medium : Blu-ray

Text #10
ID : 17
ID in the original source medium : 4775 (0x12A7)
Format : PGS
Muxing mode : zlib
Codec ID : S_HDMV/PGS
Codec ID/Info : Picture based subtitle format used on BDs/HD-DVDs
Duration : 1 h 41 min
Bit rate : 25.3 kb/s
Count of elements : 2458
Stream size : 18.4 MiB (0%)
Language : Greek
Default : No
Forced : No
Original source medium : Blu-ray

Text #11
ID : 18
ID in the original source medium : 4776 (0x12A8)
Format : PGS
Muxing mode : zlib
Codec ID : S_HDMV/PGS
Codec ID/Info : Picture based subtitle format used on BDs/HD-DVDs
Duration : 1 h 38 min
Bit rate : 1 628 b/s
Count of elements : 156
Stream size : 1.15 MiB (0%)
Language : French
Default : No
Forced : No
Original source medium : Blu-ray

Text #12
ID : 19
ID in the original source medium : 4777 (0x12A9)
Format : PGS
Muxing mode : zlib
Codec ID : S_HDMV/PGS
Codec ID/Info : Picture based subtitle format used on BDs/HD-DVDs
Duration : 1 h 39 min
Bit rate : 204 b/s
Count of elements : 16
Stream size : 148 KiB (0%)
Language : Spanish
Default : No
Forced : No
Original source medium : Blu-ray

Menu
00:00:00.000 : en:Chapter 01
00:08:56.202 : en:Chapter 02
00:17:18.370 : en:Chapter 03
00:26:02.269 : en:Chapter 04
00:35:10.817 : en:Chapter 05
00:44:05.809 : en:Chapter 06
00:52:52.210 : en:Chapter 07
01:01:32.730 : en:Chapter 08
01:11:27.825 : en:Chapter 09
01:21:11.324 : en:Chapter 10
01:31:11.841 : en:Chapter 11
01:37:37.977 : en:Chapter 12





旅客,假如您要检察本帖躲藏内容请复兴




上一篇:沙丘/星际奇兵 Dune.1984.BONUS.DISC.1080p.BluRay 17.80GB
下一篇:锅匠裁缝士兵间谍/谍影情仇.2011.2160p.BluRay.HEVC.DTS-HD.MA.5.1- 86.74GB
您需要登录后才可以回帖 登录 | 立即注册 用百度帐号登录

本版积分规则

首发之家社区成立于2011年3月,内容涉及3C家电、数码生活智能电视,股票软件,4K,体育,软件,教育,游戏等资源指标公式论坛。
  • 官方手机版

  • 抖音号

  • 商务合作

  • Powered by Discuz! X3.4 | Copyright © 2011-2021, Tencent Cloud. | 首发之家社区
  • |网站地图 | mp4d@qq.com|小黑屋|手机版|