返回顶部
  • 发帖数5667
  • 粉丝39

此人很懒,什么也没有留下

  • 最佳新人

  • 活跃会员

    经常参与各类话题的讨论,发帖内容较有主见
  • 热心会员

    经常帮助其他会员答疑
  • 灌水之王

    经常在论坛发帖,且发帖量较大
  • 社区劳模

    长期对论坛的繁荣而不断努力,或发帖主题数500以上
  • 终身成就

    为论坛做出突出贡献的会员
  • 明星会员

    在论坛有很高知名度会员
  • 幽默大师

    言语幽默
  • 爆料达人

    发帖爆料达人
开启左侧

[科幻] 春光乍洩.1997.CHINESE.2160p.BluRay.REMUX.HEVC.DTS-HD.MA.5.1-FGT 52.04GB

[复制链接]
首发之家 超级版主 显示全部楼层 发表于 2021-12-8 19:53:11 |阅读模式 打印 上一主题 下一主题
帖子完好题目:春景乍洩 Happy.Together.1997.CHINESE.2160p.BluRay.REMUX.HEVC.DTS-HD.MA.5.1-FGT 52.04GB



1701ba2e63453092c57fef871c886943.jpeg

◎译  名 春景乍鼓/Buenos Aires Affair/Happy Together/一同欢愉
◎片  名 春景乍洩
◎年  代 1997
◎产  天 止您喷鼻港,日本,韩国
◎类  别 剧情 / 恋爱 / 同性
◎语  行 粤语,汉语一般话,西班牙语
◎上映日期 1997-05-17(戛纳影戏节) / 1997-05-30(止您喷鼻港)
◎豆瓣评分 9.0/10 from 542407 users
◎豆瓣链接 https://movie.douban.com/subject/1292679/
◎片  少 96分钟
◎导  演 王家卫 Kar Wai Wong
◎编  剧 王家卫 Kar Wai Wong
◎主  演 张国枯 Leslie Cheung
      烈’伟 Tony Leung Chiu Wai
      张震 Chen Chang
      格利下里·戴顿 Gregory Dayton

◎标  签 王家卫 | 张国枯 | 烈’伟 | 恋爱 | 同道 | 喷鼻港 | 喷鼻港影戏 | 同性恋

◎简  介

  黎耀辉(烈’伟)取赫姒枯(张国枯)是冶同性情人,为了又孤的开端,他们怀着斑斓的胡想(来看北好洲年夜瀑布)分开喷鼻港去到阿根廷,却正在布宜诺斯艾利斯迷了路。黎耀辉念安下心去过日子,无法赫姒枯于夜夜歌乐中纵容兹釉祭阅性命,以期找觅更多的刺激,只当黎耀辉是他受伤后的港湾,两人不合 、争持愈来愈多,心的间隔愈来愈近。
  
  黎耀辉大白已往的日子不成能再复返时,决议分开赫姒枯,而恰是正在他分开后,失望的意味(对黎耀辉的爱)才正在赫姒枯的脑海中完好天表现。

◎获奖状况

  第50届戛挠掮影节 ?(1997)
  主比赛单位金棕榈奖(提名) 王家卫
  主比赛单位最好导演 王家卫
  
  第34届台北金马影展 ?(1997)
  金马奖最好导演(提名) 王家卫
  金马奖最好男配角(提名) 张国枯
  金马奖最好拍照 杜可风
  金马奖最好好术设想(提名) 张叔仄
  金马奖最好剪辑(提名) 张叔仄?/?黄铭林
  金马奖最好音效(提名) 梁志达?/?杜笃之
  
  第17届喷鼻港影戏金像奖 ?(1998)
  最好影戏(提名) 王家卫
  最好导演(提名) 王家卫
  最好男配角 烈’伟
  最好男配角(提名) 张国枯
  最好囊射角(提名) 张震
  最好拍照(提名) 杜可风
  最好剪接(提名) 张叔仄?/?黄铭林
  最好好术指点(提名) 张叔仄
  最好打扮外型设想(提名) 张叔仄
Video
ID : 1
ID in the original source medium : 4113 (0x1011)
Format : HEVC
Format/Info : High Efficiency Video Coding
Format profile : Main 10@L5.1@High
HDR format : SMPTE ST 2086, HDR10 compatible
Codec ID : V_MPEGH/ISO/HEVC
Duration : 1 h 35 min
Bit rate : 73.3 Mb/s
Width : 3 840 pixels
Height : 2 160 pixels
Display aspect ratio : 16:9
Frame rate mode : Constant
Frame rate : 23.976 (24000/1001/189150) FPS
Color space : YUV
Chroma subsampling : 4:2:0 (Type 2)
Bit depth : 10 bits
Bits/(Pixel*Frame) : 0.369
Stream size : 49.1 GiB (94%)
Language : English
Default : No
Forced : No
Color range : Limited
Color primaries : BT.2020
Transfer characteristics : PQ
Matrix coefficients : BT.2020 non-constant
Mastering display color primaries : BT.2020
Mastering display luminance : min: 0.0001 cd/m2, max: 1000 cd/m2
Maximum Content Light Level : 1000 cd/m2
Maximum Frame-Average Light Level : 400 cd/m2
Original source medium : Blu-ray

Audio #1
ID : 2
ID in the original source medium : 4353 (0x1101)
Format : DTS XLL
Format/Info : Digital Theater Systems
Commercial name : DTS-HD Master Audio
Codec ID : A_DTS
Duration : 1 h 35 min
Bit rate mode : Variable
Bit rate : 2 113 kb/s
Channel(s) : 6 channels
Channel layout : C L R Ls Rs LFE
Sampling rate : 48.0 kHz
Frame rate : 93.750 FPS (512 SPF)
Bit depth : 16 bits
Compression mode : Lossless
Stream size : 1.42 GiB (3%)
Title : DTS-HD MA 5.1
Language : Chinese
Default : Yes
Forced : No
Original source medium : Blu-ray

Audio #2
ID : 3
Format : AC-3
Format/Info : Audio Coding 3
Commercial name : Dolby Digital
Codec ID : A_AC3
Duration : 1 h 35 min
Bit rate mode : Constant
Bit rate : 640 kb/s
Channel(s) : 6 channels
Channel layout : L R C LFE Ls Rs
Sampling rate : 48.0 kHz
Frame rate : 31.250 FPS (1536 SPF)
Compression mode : Lossy
Stream size : 439 MiB (1%)
Title : DD 5.1
Language : Chinese
Service kind : Complete Main
Default : No
Forced : No

Audio #3
ID : 4
ID in the original source medium : 4352 (0x1100)
Format : DTS XLL
Format/Info : Digital Theater Systems
Commercial name : DTS-HD Master Audio
Codec ID : A_DTS
Duration : 1 h 35 min
Bit rate mode : Variable
Bit rate : 1 584 kb/s
Channel(s) : 2 channels
Sampling rate : 48.0 kHz
Frame rate : 93.750 FPS (512 SPF)
Bit depth : 16 bits
Compression mode : Lossless
Stream size : 1.06 GiB (2%)
Title : DTS-HD MA 5.1
Language : German
Default : No
Forced : No
Original source medium : Blu-ray

Text #1
ID : 5
Format : UTF-8
Codec ID : S_TEXT/UTF8
Codec ID/Info : UTF-8 Plain Text
Duration : 1 h 34 min
Bit rate : 26 b/s
Count of elements : 662
Stream size : 18.6 KiB (0%)
Language : English
Default : Yes
Forced : No

Text #2
ID : 6
ID in the original source medium : 4768 (0x12A0)
Format : PGS
Muxing mode : zlib
Codec ID : S_HDMV/PGS
Codec ID/Info : Picture based subtitle format used on BDs/HD-DVDs
Duration : 1 h 33 min
Bit rate : 15.1 kb/s
Count of elements : 1194
Stream size : 10.0 MiB (0%)
Language : German
Default : No
Forced : No
Original source medium : Blu-ray

Text #3
ID : 7
ID in the original source medium : 4769 (0x12A1)
Format : PGS
Muxing mode : zlib
Codec ID : S_HDMV/PGS
Codec ID/Info : Picture based subtitle format used on BDs/HD-DVDs
Duration : 1 h 33 min
Bit rate : 1 173 b/s
Count of elements : 102
Stream size : 801 KiB (0%)
Language : German
Default : No
Forced : No
Original source medium : Blu-ray

Menu
00:00:00.000 : en:Chapter 01
00:07:31.492 : en:Chapter 02
00:12:42.803 : en:Chapter 03
00:21:35.043 : en:Chapter 04
00:32:16.476 : en:Chapter 05
00:39:13.601 : en:Chapter 06
00:43:42.828 : en:Chapter 07
00:49:32.761 : en:Chapter 08
00:54:21.341 : en:Chapter 09
01:01:27.141 : en:Chapter 10
01:07:28.627 : en:Chapter 11
01:11:12.601 : en:Chapter 12
01:15:48.168 : en:Chapter 13
01:20:02.839 : en:Chapter 14
01:28:22.130 : en:Chapter 15
01:33:42.992 : en:Chapter 16





旅客,假如您要检察本帖躲藏内容请复兴




上一篇:黑暗騎士.The Dark Knight.2008.UHD.BluRay.2160p.m2ts 67.35G
下一篇:九叔之古棺奇案1[国语配音/中文字幕]2021.2160p.WEB-DL.H265.DDP2.0- 1.91GB

精彩评论2

sanwa97 黄金首粉 显示全部楼层 发表于 2021-12-9 21:13:58
好早前的经典,致敬
topfeel 狂热首粉 显示全部楼层 发表于 2021-12-10 11:14:43
楼主辛苦了,谢谢首发之家!!
Ha~Ho~454~
您需要登录后才可以回帖 登录 | 立即注册 用百度帐号登录

本版积分规则

首发之家社区成立于2011年3月,内容涉及3C家电、数码生活智能电视,股票软件,4K,体育,软件,教育,游戏等资源指标公式论坛。
  • 官方手机版

  • 抖音号

  • 商务合作

  • Powered by Discuz! X3.4 | Copyright © 2011-2021, Tencent Cloud. | 首发之家社区
  • |网站地图 | mp4d@qq.com|小黑屋|手机版|