返回顶部
  • 发帖数5667
  • 粉丝39

此人很懒,什么也没有留下

  • 最佳新人

  • 活跃会员

    经常参与各类话题的讨论,发帖内容较有主见
  • 热心会员

    经常帮助其他会员答疑
  • 灌水之王

    经常在论坛发帖,且发帖量较大
  • 社区劳模

    长期对论坛的繁荣而不断努力,或发帖主题数500以上
  • 终身成就

    为论坛做出突出贡献的会员
  • 明星会员

    在论坛有很高知名度会员
  • 幽默大师

    言语幽默
  • 爆料达人

    发帖爆料达人
开启左侧

[剧情] 大河恋/一条奔腾而过的河流1992.2160p.BluRay.x264.8bit.SDR.DTS-HD.MA.5.1 64.74GB

[复制链接]
首发之家 超级版主 显示全部楼层 发表于 2021-12-8 19:51:43 |阅读模式 打印 上一主题 下一主题
9deb7620eb2bfa8afa3a67b2ff9bec71.jpeg

◎译  名 年夜河恋/一条奔驰而过的河道/一条贯串的年夜河/年夜河之恋/川流光阴(港)
◎片  名 A River Runs Through It
◎年  代 1992
◎产  天 好国
◎类  别 剧情 / 家庭
◎语  行 英语
◎上映日期 1992-10-09(好国)
◎豆瓣评分 8.5/10 from 67285 users
◎豆瓣链接 https://movie.douban.com/subject/1292718/
◎片  少 123分钟
◎导  演 罗伯特·雷德祸 Robert Redford
◎编  剧 理查德·弗雷登伯格 Richard Friedenberg / 诺曼·麦渴攀莱恩 Norman Maclean
◎主  演 渴攀莱格·开佛 Craig Sheffer
      布推德·皮特 Brad Pitt
      汤姆·斯凯里特 Tom Skerritt
      布兰达·布莱斯 Brenda Blethyn
      艾米丽·劳伊德 Emily Lloyd
      伊得埭麦渴攀勒格 Edie McClurg
      斯蒂芬·开伦 Stephen Shellen
      妮科我·伯德特 Nicole Burdette
      苏珊·特雷勒 Susan Traylor
      迈克我·库坐兹 Michael Cudlitz
      罗布·考克斯 Rob Cox
      弗雷德·奥渴攀兰 Fred Oakland
      麦金太我·狄克逊 MacIntyre Dixon
      威廉·胡特金斯 William Hootkins
      杰斯·施维德 Jess Schwidde
      约瑟妇·下登-莱维特 Joseph Gordon-Levitt
      罗伯特·雷德祸 Robert Redford

◎标  签 好国 | 亲情 | 布推德·皮特 | BradPitt | 年夜河恋 | 典范 | 好国影戏 | 剧情

◎简  介

  两兄弟常常跟女亲一同垂钓。潺潺河火,悄悄午后,成磷聘子间最易记的时辰。女亲是一个老牧师,经常正在镇上传教,年夜女琢拥曼(渴攀莱格?开佛 Craig Sheffer 饰)恰是担当了女亲的奇迹——他善于授课,年夜教结业后回抵家城传讲授业。小女子保罗(布推德?皮特 Brad Pitt 饰)却有着悬殊的性情——他酷爱自在,有一套奇异的垂钓办法。但是,使人担忧的是他迷上了打赌,并因而短钱遭挨。
  
  诺曼成婚后支迪苹启芝减哥年夜教的聘任书,他离家前去芝减哥之前,战女亲、弟弟一同正在年夜河滨再次享用垂钓光阴。他劝保罗跟他一同分开那里,但是保罗痴迷垂钓,不肯拜别。怎料,那竟是最初当编散。

◎获奖状况

  第65届奥斯卡金像奖 ?(1993)
  最好改编脚本(提名) 理查德·弗雷登伯格
  最好拍照 菲利普·鲁斯洛特
  最好本创配乐(提名) 马克·艾沙姆
  
  第50届金球奖 ?(1993)
  影戏类最好导演(提名) 罗伯特·雷德祸
Video
ID : 1
Format : AVC
Format/Info : Advanced Video Codec
Format profile : High@L5.1
Format settings : CABAC / 5 Ref Frames
Format settings, CABAC : Yes
Format settings, Reference frames : 5 frames
Codec ID : V_MPEG4/ISO/AVC
Duration : 2 h 3 min
Bit rate : 72.4 Mb/s
Width : 3 840 pixels
Height : 2 076 pixels
Display aspect ratio : 1.85:1
Frame rate mode : Constant
Frame rate : 24.000 FPS
Color space : YUV
Chroma subsampling : 4:2:0
Bit depth : 8 bits
Scan type : Progressive
Bits/(Pixel*Frame) : 0.378
Stream size : 62.4 GiB (97%)
Writing library : x264 core 157 r2935 545de2f
Encoding settings : cabac=1 / ref=5 / deblock=1:-1:-1 / analyse=0x3:0x113 / me=umh / subme=10 / psy=1 / psy_rd=1.00:0.15 / mixed_ref=1 / me_range=48 / chroma_me=1 / trellis=2 / 8x8dct=1 / cqm=0 / deadzone=21,11 / fast_pskip=1 / chroma_qp_offset=-3 / threads=48 / lookahead_threads=4 / sliced_threads=0 / nr=0 / decimate=0 / interlaced=0 / bluray_compat=0 / constrained_intra=0 / bframes=3 / b_pyramid=2 / b_adapt=2 / b_bias=0 / direct=3 / weightb=1 / open_gop=0 / weightp=2 / keyint=250 / keyint_min=24 / scenecut=40 / intra_refresh=0 / rc_lookahead=50 / rc=crf / mbtree=1 / crf=22.0 / qcomp=0.60 / qpmin=0 / qpmax=69 / qpstep=4 / ip_ratio=1.40 / aq=1:1.00
Default : Yes
Forced : No

Audio #1
ID : 2
ID in the original source medium : 4353 (0x1101)
Format : DTS XLL
Format/Info : Digital Theater Systems
Commercial name : DTS-HD Master Audio
Codec ID : A_DTS
Duration : 2 h 3 min
Bit rate mode : Variable
Bit rate : 1 763 kb/s
Channel(s) : 6 channels
Channel layout : C L R Ls Rs LFE
Sampling rate : 48.0 kHz
Frame rate : 93.750 FPS (512 SPF)
Bit depth : 16 bits
Compression mode : Lossless
Stream size : 1.52 GiB (2%)
Title : DTS-HD MA 5.1
Language : English
Default : Yes
Forced : No
Original source medium : Blu-ray

Audio #2
ID : 3
Format : AC-3
Format/Info : Audio Coding 3
Commercial name : Dolby Digital
Codec ID : A_AC3
Duration : 2 h 3 min
Bit rate mode : Constant
Bit rate : 640 kb/s
Channel(s) : 6 channels
Channel layout : L R C LFE Ls Rs
Sampling rate : 48.0 kHz
Frame rate : 31.250 FPS (1536 SPF)
Compression mode : Lossy
Stream size : 565 MiB (1%)
Title : DD 5.1
Language : English
Service kind : Complete Main
Default : No
Forced : No

Text #1
ID : 4
Format : UTF-8
Codec ID : S_TEXT/UTF8
Codec ID/Info : UTF-8 Plain Text
Duration : 1 h 58 min
Bit rate : 41 b/s
Count of elements : 881
Stream size : 36.5 KiB (0%)
Language : English
Default : Yes
Forced : No

Text #2
ID : 5
ID in the original source medium : 4768 (0x12A0)
Format : PGS
Muxing mode : zlib
Codec ID : S_HDMV/PGS
Codec ID/Info : Picture based subtitle format used on BDs/HD-DVDs
Duration : 1 h 58 min
Bit rate : 31.0 kb/s
Count of elements : 2162
Stream size : 26.3 MiB (0%)
Language : German
Default : No
Forced : No
Original source medium : Blu-ray

Text #3
ID : 6
ID in the original source medium : 4769 (0x12A1)
Format : PGS
Muxing mode : zlib
Codec ID : S_HDMV/PGS
Codec ID/Info : Picture based subtitle format used on BDs/HD-DVDs
Duration : 1 h 58 min
Bit rate : 35.3 kb/s
Count of elements : 2030
Stream size : 30.0 MiB (0%)
Language : German
Default : No
Forced : No
Original source medium : Blu-ray

Text #4
ID : 7
ID in the original source medium : 4770 (0x12A2)
Format : PGS
Muxing mode : zlib
Codec ID : S_HDMV/PGS
Codec ID/Info : Picture based subtitle format used on BDs/HD-DVDs
Duration : 1 h 58 min
Bit rate : 26.6 kb/s
Count of elements : 1772
Stream size : 22.6 MiB (0%)
Language : English
Default : No
Forced : No
Original source medium : Blu-ray

Text #5
ID : 8
ID in the original source medium : 4771 (0x12A3)
Format : PGS
Muxing mode : zlib
Codec ID : S_HDMV/PGS
Codec ID/Info : Picture based subtitle format used on BDs/HD-DVDs
Duration : 3 s 917 ms
Bit rate : 59.3 kb/s
Count of elements : 2
Stream size : 28.4 KiB (0%)
Language : German
Default : No
Forced : No
Original source medium : Blu-ray

Menu
00:00:00.000 : en:Chapter 01
00:09:02.000 : en:Chapter 02
00:22:25.000 : en:Chapter 03
00:35:59.000 : en:Chapter 04
00:48:43.000 : en:Chapter 05
01:03:17.000 : en:Chapter 06
01:10:51.000 : en:Chapter 07
01:18:02.000 : en:Chapter 08
01:27:38.000 : en:Chapter 09
01:40:21.000 : en:Chapter 10
01:52:26.000 : en:Chapter 11
01:59:30.000 : en:Chapter 12



帖子完好题目:年夜河恋/一条奔驰而过的河道 A.River.Runs.Through.It.1992.2160p.BluRay.x264.8bit.SDR.DTS-HD.MA.5.1-SWTYBLZ 64.74GB



旅客,假如您要检察本帖躲藏内容请复兴




上一篇:战疫之疯狂的口罩[国语配音/中文字幕]2021.2160p.WEB-DL.H265.AAC- 1.96GB
下一篇:黑暗騎士.The Dark Knight.2008.UHD.BluRay.2160p.m2ts 67.35G
您需要登录后才可以回帖 登录 | 立即注册 用百度帐号登录

本版积分规则

首发之家社区成立于2011年3月,内容涉及3C家电、数码生活智能电视,股票软件,4K,体育,软件,教育,游戏等资源指标公式论坛。
  • 官方手机版

  • 抖音号

  • 商务合作

  • Powered by Discuz! X3.4 | Copyright © 2011-2021, Tencent Cloud. | 首发之家社区
  • |网站地图 | mp4d@qq.com|小黑屋|手机版|