返回顶部
  • 发帖数1669
  • 粉丝19

此人很懒,什么也没有留下

  • 最佳新人

  • 活跃会员

    经常参与各类话题的讨论,发帖内容较有主见
  • 热心会员

    经常帮助其他会员答疑
  • 灌水之王

    经常在论坛发帖,且发帖量较大
  • 社区劳模

    长期对论坛的繁荣而不断努力,或发帖主题数500以上
  • 终身成就

    为论坛做出突出贡献的会员
  • QQ绑定

    QQ绑定会员
  • 明星会员

    在论坛有很高知名度会员
  • 沙发达人

    抢沙总数达到100
  • 光悦帅哥

    上传了自己真人秀照片就可以获得勋章哦~
  • 实名认证

    通过身份证实名认证
  • 爆料达人

    发帖爆料达人
开启左侧

[动漫高清] [2021][白蛇2:青蛇劫起][WEB-MKV/9.03GB][国英多语内封简繁多国软字幕][1080P]

[复制链接]
dolgm 高级首粉 显示全部楼层 发表于 2021-12-4 17:15:59 |阅读模式 打印 上一主题 下一主题
e89179e1f6ba5a1c824d55cbf9419f0c.jpg

◎译  名 White Snake 2: Green Snake / 黑蛇2 / Green Snake
◎片  名 黑蛇2:青蛇劫起
◎年  代 2021
◎产  天 止您年夜陆
◎类  别 动绘 / 奇异 / 冒险
◎语  行 汉语一般话
◎上映日期 2021-07-23(止您年夜陆)
◎IMDb评星 ★★★★★★★☆☆☆
◎IMDb评分 6.8/10 from 427 users
◎豆瓣评星 ★★★✦☆
◎豆瓣评分 6.9/10 from 310,455 users
◎片  少 131分钟
◎导  演 黄家康 / Amp Wong
◎编  剧 年夜毛 / Damao
◎造  片  人 崔迪 / Di Cui
       于洲 / Zhou Yu
       李捷 / Jie Li
       孙凌宇
       孟钧 / Jun Meng
       王微 / Gary Wang
       李旎 / Carly Lee
       郑志昊 / Zhihao Zheng
◎音  乐 郭好为 / Haowei Guo
       周深 / Shen Zhou
       刘惜君 / Sara Liu
◎好  术 孔佑阳
◎音  效 陈光 / Guang Chen
◎动  绘 开君伟 / Junwei Xie
◎演  员 唐小喜 / Xiaoxi Tang | 配 小青
       正正 / Fuzheng Zhang | 饰 受里人
       我‖ / Chao Wei | 配 司马
       赵铭洲 / Mingzhou Zhao | 配 牛头帮主
       郑小璞 / Xiaopu Zheng | 配 宝青坊主
       马程 / Cheng Ma | 配 老狐狸宝青坊主
       宋旭朝 | 配 法海
       邱春 / Qiu Qiu | 配 孙姐 / 导跷
       张凯 / Kai Zhang | 配 两当家
       缓佳琦 / Jiaqi Xu | 配 三当家
       闭帅 / Shuai Guan | 配 四当家
       张倍蓠 / Biyu Zhang | 配 蜘蛛粗
       张喆 / Zhe Zhang | 配 小黑
       杨天翔 / Tianxiang Yang | 配 许仙
       宝木肿眙 / Ming Song | 配 醒酒男
       林强 / Qiang Lin | 配 墨客

◎标  签 国漫 | 动绘 | 逃光动绘 | 国产 | 女性 | 动漫 | 2021 | 止您年夜陆

◎简  介 

  北宋终年,小黑为救许仙火漫金山,末被法海压正在捞渝塔下。小青则不测被法海挨进诡同的建罗乡幻景。几回危急种埂青被奥秘受里少年所救,小青带着进来救出小黑的执念历经灾难取生长,同受里少年一同寻觅分开的法子。

2162fe397b50bd334e3cac26f3656622.jpg
d44ef42791ccd1e83b73762dfe7113aa.jpg
6863cc6f7b28af7d501be728c63ca7f7.jpg

Video
ID : 1
Format : AVC
Format/Info : Advanced Video Codec
Format profile : Main@L4
Format settings : CABAC / 3 Ref Frames
Format settings, CABAC : Yes
Format settings, Reference frames : 3 frames
Codec ID : V_MPEG4/ISO/AVC
Duration : 2 h 13 min
Bit rate mode : Variable
Bit rate : 4 582 kb/s
Nominal bit rate : 6 458 kb/s
Maximum bit rate : 10.2 Mb/s
Width : 1 920 pixels
Height : 1 080 pixels
Display aspect ratio : 16:9
Frame rate mode : Constant
Frame rate : 24.000 FPS
Color space : YUV
Chroma subsampling : 4:2:0
Bit depth : 8 bits
Scan type : Progressive
Bits/(Pixel*Frame) : 0.092
Stream size : 4.26 GiB (47%)
Writing library : x264 core 148 r2727 7d026e8
Encoding settings : cabac=1 / ref=3 / deblock=1:0:0 / analyse=0x1:0x111 / me=umh / subme=10 / psy=1 / psy_rd=1.00:0.00 / mixed_ref=1 / me_range=24 / chroma_me=1 / trellis=2 / 8x8dct=0 / cqm=0 / deadzone=21,11 / fast_pskip=1 / chroma_qp_offset=-2 / threads=8 / lookahead_threads=1 / sliced_threads=0 / nr=0 / decimate=1 / interlaced=0 / bluray_compat=0 / stitchable=1 / constrained_intra=0 / bframes=2 / b_pyramid=0 / b_adapt=2 / b_bias=0 / direct=3 / weightb=1 / open_gop=0 / weightp=2 / keyint=250 / keyint_min=24 / scenecut=0 / intra_refresh=0 / rc_lookahead=48 / rc=2pass / mbtree=1 / bitrate=6458 / ratetol=1.0 / qcomp=0.50 / qpmin=6 / qpmax=51 / qpstep=4 / cplxblur=20.0 / qblur=0.5 / vbv_maxrate=10215 / vbv_bufsize=13620 / nal_hrd=vbr / filler=0 / ip_ratio=1.40 / aq=1:1.00
Default : Yes
Forced : No

......

Audio #2
ID : 3
Format : E-AC-3
Format/Info : Enhanced AC-3
Commercial name : Dolby Digital Plus
Codec ID : A_EAC3
Duration : 2 h 13 min
Bit rate mode : Constant
Bit rate : 640 kb/s
Channel(s) : 6 channels
Channel layout : L R C LFE Ls Rs
Sampling rate : 48.0 kHz
Frame rate : 31.250 FPS (1536 SPF)
Bit depth : 32 bits
Compression mode : Lossy
Stream size : 609 MiB (7%)
Title : English
Language : English
Service kind : Complete Main
Default : No
Forced : No

......

Audio #5
ID : 6
Format : E-AC-3
Format/Info : Enhanced AC-3
Commercial name : Dolby Digital Plus
Codec ID : A_EAC3
Duration : 2 h 13 min
Bit rate mode : Constant
Bit rate : 640 kb/s
Channel(s) : 6 channels
Channel layout : L R C LFE Ls Rs
Sampling rate : 48.0 kHz
Frame rate : 31.250 FPS (1536 SPF)
Bit depth : 32 bits
Compression mode : Lossy
Stream size : 609 MiB (7%)
Title : Mandarin (Guoyu)
Language : Chinese
Service kind : Complete Main
Default : No
Forced : No

Text #1
......
Text #31
ID : 40
Format : UTF-8
Codec ID : S_TEXT/UTF8
Codec ID/Info : UTF-8 Plain Text
Duration : 2 h 8 min
Bit rate : 20 b/s
Count of elements : 1127
Stream size : 19.6 KiB (0%)
Title : Simplified
Language : Chinese
Default : No
Forced : No

Text #32
ID : 41
Format : UTF-8
Codec ID : S_TEXT/UTF8
Codec ID/Info : UTF-8 Plain Text
Duration : 2 h 10 min
Bit rate : 20 b/s
Count of elements : 1136
Stream size : 20.0 KiB (0%)
Title : Traditional
Language : Chinese
Default : No
Forced : No

旅客,假如您要检察本帖躲藏内容请复兴




上一篇:[2021][瑞克与莫蒂:秋叶原大决战][WEB-MKV/360MB][日语中字][1080P]
下一篇:[日本][浪客剑心 1-5][全05部][日语中字][BD-MKV][1080P][DBD-Raws]

精彩评论3

以酒会友 首发之星 实名认证  显示全部楼层 发表于 2021-12-7 16:43:00
楼主辛苦了,谢谢首发之家!!
己所不欲,勿施于人
您需要登录后才可以回帖 登录 | 立即注册 用百度帐号登录

本版积分规则

首发之家社区成立于2011年3月,内容涉及3C家电、数码生活智能电视,股票软件,4K,体育,软件,教育,游戏等资源指标公式论坛。
  • 官方手机版

  • 抖音号

  • 商务合作

  • Powered by Discuz! X3.4 | Copyright © 2011-2021, Tencent Cloud. | 首发之家社区
  • |网站地图 | mp4d@qq.com|小黑屋|手机版|