返回顶部
  • 发帖数1632
  • 粉丝19

此人很懒,什么也没有留下

  • 最佳新人

  • 活跃会员

    经常参与各类话题的讨论,发帖内容较有主见
  • 热心会员

    经常帮助其他会员答疑
  • 灌水之王

    经常在论坛发帖,且发帖量较大
  • 社区劳模

    长期对论坛的繁荣而不断努力,或发帖主题数500以上
  • 终身成就

    为论坛做出突出贡献的会员
  • QQ绑定

    QQ绑定会员
  • 明星会员

    在论坛有很高知名度会员
  • 沙发达人

    抢沙总数达到100
  • 光悦帅哥

    上传了自己真人秀照片就可以获得勋章哦~
  • 实名认证

    通过身份证实名认证
  • 爆料达人

    发帖爆料达人
开启左侧

[惊悚] 第13天 Day.13.2020.720p.BluRay.x264-FREEMAN 1.72GB

[复制链接]
dolgm 高级首粉 显示全部楼层 发表于 2021-10-23 21:02:43 |阅读模式 打印 上一主题 下一主题
a318c433f0bb4dd25914436af57a6177.jpeg
◎译  名 第13天
◎片  名 Day 13
◎年  代 2020
◎产  天 好国
◎类  别 惊悚
◎语  行 英语
◎上映日期 2020-08-04(好国)
◎豆瓣评分 /10 from 0 users
◎豆瓣链接 https://movie.douban.com/subject/35138035/
◎主  演 马丁·科妇 Martin Kove
      凶娜维芙·汉内柳斯 Genevieve Hannelius
      达琳·沃格我 Darlene Vogel
      亚历克斯·马克僧科我 Alex MacNicoll
      梅里克·朱菲 Meyrick Murphy

◎标  签 惊悚

◎简  介

  17岁的Colton寒假正在家里当保姆赐顾帮衬mm。劈面老屋子里搬去新的邻人,住了一名标致的女孩Heather。Colton隔着叫雄察她,喜好上她,却也同时发明她狄坐女对她愈来愈粗鲁。Colton疑心养女是某个正教洒旦构造的跟随者,而且方案要把Heather杀戮,Colton只好念尽法子参与,念阻遏悲剧发作。Colton发掘出本相以后才觉察工作比他念像中的借要吓人。
Video
ID : 1
Format : AVC
Format/Info : Advanced Video Codec
Format profile : High@L4.1
Format settings : CABAC / 8 Ref Frames
Format settings, CABAC : Yes
Format settings, Reference frames : 8 frames
Codec ID : V_MPEG4/ISO/AVC
Duration : 1 h 31 min
Bit rate : 2 058 kb/s
Width : 1 280 pixels
Height : 544 pixels
Display aspect ratio : 2.35:1
Frame rate mode : Constant
Frame rate : 23.976 (24000/1001/189150) FPS
Color space : YUV
Chroma subsampling : 4:2:0
Bit depth : 8 bits
Scan type : Progressive
Bits/(Pixel*Frame) : 0.123
Stream size : 1.31 GiB (76%)
Writing library : x264 core 164 r3075 66a5bc1
Encoding settings : cabac=1 / ref=8 / deblock=1:-3:-3 / analyse=0x3:0x133 / me=umh / subme=9 / psy=1 / psy_rd=1.00:0.00 / mixed_ref=1 / me_range=16 / chroma_me=1 / trellis=2 / 8x8dct=1 / cqm=0 / deadzone=21,11 / fast_pskip=0 / chroma_qp_offset=-2 / threads=17 / lookahead_threads=1 / sliced_threads=0 / nr=0 / decimate=1 / interlaced=0 / bluray_compat=0 / constrained_intra=0 / bframes=3 / b_pyramid=2 / b_adapt=2 / b_bias=0 / direct=3 / weightb=1 / open_gop=0 / weightp=2 / keyint=250 / keyint_min=23 / scenecut=40 / intra_refresh=0 / rc_lookahead=60 / rc=crf / mbtree=1 / crf=17.0 / qcomp=0.60 / qpmin=0 / qpmax=69 / qpstep=4 / ip_ratio=1.40 / aq=3:1.00
Default : Yes
Forced : No
Color range : Limited
Matrix coefficients : BT.709

Audio
ID : 2
Format : AC-3
Format/Info : Audio Coding 3
Commercial name : Dolby Digital
Codec ID : A_AC3
Duration : 1 h 31 min
Bit rate mode : Constant
Bit rate : 640 kb/s
Channel(s) : 6 channels
Channel layout : L R C LFE Ls Rs
Sampling rate : 48.0 kHz
Frame rate : 31.250 FPS (1536 SPF)
Compression mode : Lossy
Stream size : 417 MiB (24%)
Language : English
Service kind : Complete Main
Default : Yes
Forced : No

Text #1
ID : 3
Format : UTF-8
Codec ID : S_TEXT/UTF8
Codec ID/Info : UTF-8 Plain Text
Duration : 1 min 42 s
Bit rate : 3 b/s
Count of elements : 3
Stream size : 45.0 Bytes (0%)
Language : English
Default : Yes
Forced : Yes

Text #2
ID : 4
Format : PGS
Muxing mode : zlib
Codec ID : S_HDMV/PGS
Codec ID/Info : Picture based subtitle format used on BDs/HD-DVDs
Duration : 1 min 42 s
Bit rate : 1 928 b/s
Count of elements : 6
Stream size : 24.1 KiB (0%)
Language : English
Default : No
Forced : No

Text #3
ID : 5
Format : PGS
Muxing mode : zlib
Codec ID : S_HDMV/PGS
Codec ID/Info : Picture based subtitle format used on BDs/HD-DVDs
Duration : 1 h 15 min
Bit rate : 861 b/s
Count of elements : 62
Stream size : 475 KiB (0%)
Language : German
Default : No
Forced : No

Menu
00:00:00.000 : en:00:00:00.000
00:09:40.872 : en:00:09:40.872
00:21:25.910 : en:00:21:25.910
00:32:03.088 : en:00:32:03.088
00:42:35.595 : en:00:42:35.595
00:53:26.829 : en:00:53:26.829
00:59:33.236 : en:00:59:33.236
01:11:48.346 : en:01:11:48.346


旅客,假如您要检察本帖躲藏内容请复兴




上一篇:玻璃屋/玻璃屋的秘密 The.Glass.House.2001.720p.BluRay.x264-4.72GB

精彩评论1

topfeel 狂热首粉 显示全部楼层 发表于 2021-10-27 10:12:54
回的人少,我来小顶一下
Ha~Ho~454~
您需要登录后才可以回帖 登录 | 立即注册 用百度帐号登录

本版积分规则

首发之家社区成立于2011年3月,内容涉及3C家电、数码生活智能电视,股票软件,4K,体育,软件,教育,游戏等资源指标公式论坛。
  • 官方手机版

  • 抖音号

  • 商务合作

  • Powered by Discuz! X3.4 | Copyright © 2011-2021, Tencent Cloud. | 首发之家社区
  • |网站地图 | mp4d@qq.com|小黑屋|手机版|