返回顶部
  • 发帖数1669
  • 粉丝19

此人很懒,什么也没有留下

  • 最佳新人

  • 活跃会员

    经常参与各类话题的讨论,发帖内容较有主见
  • 热心会员

    经常帮助其他会员答疑
  • 灌水之王

    经常在论坛发帖,且发帖量较大
  • 社区劳模

    长期对论坛的繁荣而不断努力,或发帖主题数500以上
  • 终身成就

    为论坛做出突出贡献的会员
  • QQ绑定

    QQ绑定会员
  • 明星会员

    在论坛有很高知名度会员
  • 沙发达人

    抢沙总数达到100
  • 光悦帅哥

    上传了自己真人秀照片就可以获得勋章哦~
  • 实名认证

    通过身份证实名认证
  • 爆料达人

    发帖爆料达人
开启左侧

[惊悚] 玻璃屋/玻璃屋的秘密 The.Glass.House.2001.720p.BluRay.x264-4.72GB

[复制链接]
dolgm 高级首粉 显示全部楼层 发表于 2021-10-23 21:01:08 |阅读模式 打印 上一主题 下一主题
df2cdecdbd12e4041c184f0117511e22.jpeg

◎译  名 玻璃屋/玻璃屋的机密
◎片  名 The Glass House
◎年  代 2001
◎产  天 好国
◎类  别 惊悚
◎语  行 英语,西班牙语
◎上映日期 2001-09-14(好国)
◎豆瓣评分 6.6/10 from 1114 users
◎豆瓣链接 https://movie.douban.com/subject/1296441/
◎片  少 106分钟
◎导  演 丹僧我·沙海姆 Daniel Sackheim
◎编  剧 韦斯利·斯崔克 Wesley Strick
◎主  演 戴安·琳恩 Diane Lane
      莉莉·索专斯基 Leelee Sobieski
      斯特兰·斯卡斯减德 Stellan Skarsg?rd
      Alice Hirson Alice Hirson
      Michele Nordin Michele Nordin
      德鲁吮ノ德 Drew Snyder
      D.埃利奥特·伍兹 D. Elliot Woods
      卡莉·波普 Carly Pope
      布伦特·塞克斯顿 Brent Sexton
      墨莉娅·维推 Julia Vera
      减文·欧康诺 Gavin O'Connor
      玛俗·丹齐格 Maia Danziger
      迈克我·保罗·陈 Michael Paul Chan
      詹纽瑞·琼斯 January Jones
      布鲁斯·邓恩 Bruce Dern
      艾格僧丝·布鲁根 Agnes Bruckner
      特推沃·摩根 Trevor Morgan
      渴攀里斯·诺斯 Chris Noth
      丽塔·威我逊 Rita Wilson
      蕾切我·威我森 Rachel Wilson
      迈克我·奥凶弗 Michael O'Keefe
      约翰·比灵斯列 John Billingsley
      凯西·痹铀 Kathy Baker
      齐纳·萨维我斯 China Shavers
      推特安亚·阿我达 Rutanya Alda
      艾瑞克·阿瓦利 Erick Avari

◎标  签 惊悚 | 悬疑 | 好国 | 好国影戏 | 2001 | 立功 | 影戏 | 丽丽·索伯斯基

◎简  介

  露比(莉莉·索专斯基 Leelee Sobieski 饰)战雷特(特推沃·摩根 Trevor Morgan 饰)的怙恃正在一场车福中没有幸丧死,姐弟两人便茨嫔为了鳏寡孤独的孤女。正在那个节骨眼上,怙恃死前的密友艾琳(黛安·莲恩 Diane Lane 饰)战特里(斯特兰·斯卡斯减德 Stellan Skarsg?rd 饰)佳耦两人漂亮的收容了行将被丧亡孤女岳阅两个孩子,他们位于马利布市的奢华别墅成了姐弟两鹊滥第两个荚冬正在那边,露比战雷特吃脱没有忧,过着劣渥充足的糊口。
  
  但是,如许的日子并出有连续多暂,跟着工夫的推移,露比垂垂发明,养怙恃仁慈温顺的里具底下,仿佛躲藏着可埠媚一里。不只云云,杀逝世姐弟两怙恃的那场车福,仿佛战艾琳取特里有着千丝万缕的联系关系。
Video
ID : 1
Format : AVC
Format/Info : Advanced Video Codec
Format profile : High@L4.1
Format settings : CABAC / 8 Ref Frames
Format settings, CABAC : Yes
Format settings, Reference frames : 8 frames
Codec ID : V_MPEG4/ISO/AVC
Duration : 1 h 46 min
Bit rate : 5 699 kb/s
Width : 1 280 pixels
Height : 544 pixels
Display aspect ratio : 2.35:1
Frame rate mode : Constant
Frame rate : 23.976 (24000/1001/189150) FPS
Color space : YUV
Chroma subsampling : 4:2:0
Bit depth : 8 bits
Scan type : Progressive
Bits/(Pixel*Frame) : 0.341
Stream size : 4.23 GiB (90%)
Writing library : x264 core 164 r3075 66a5bc1
Encoding settings : cabac=1 / ref=8 / deblock=1:-3:-3 / analyse=0x3:0x133 / me=umh / subme=9 / psy=1 / psy_rd=1.00:0.00 / mixed_ref=1 / me_range=16 / chroma_me=1 / trellis=2 / 8x8dct=1 / cqm=0 / deadzone=21,11 / fast_pskip=0 / chroma_qp_offset=-2 / threads=17 / lookahead_threads=1 / sliced_threads=0 / nr=0 / decimate=1 / interlaced=0 / bluray_compat=0 / constrained_intra=0 / bframes=3 / b_pyramid=2 / b_adapt=2 / b_bias=0 / direct=3 / weightb=1 / open_gop=0 / weightp=2 / keyint=250 / keyint_min=23 / scenecut=40 / intra_refresh=0 / rc_lookahead=60 / rc=crf / mbtree=1 / crf=17.0 / qcomp=0.60 / qpmin=0 / qpmax=69 / qpstep=4 / ip_ratio=1.40 / aq=3:0.60
Default : Yes
Forced : No
Color range : Limited
Matrix coefficients : BT.709

Audio
ID : 2
Format : AC-3
Format/Info : Audio Coding 3
Commercial name : Dolby Digital
Codec ID : A_AC3
Duration : 1 h 46 min
Bit rate mode : Constant
Bit rate : 640 kb/s
Channel(s) : 6 channels
Channel layout : L R C LFE Ls Rs
Sampling rate : 48.0 kHz
Frame rate : 31.250 FPS (1536 SPF)
Compression mode : Lossy
Stream size : 486 MiB (10%)
Language : English
Service kind : Complete Main
Default : Yes
Forced : No

Text #1
ID : 3
Format : PGS
Muxing mode : zlib
Codec ID : S_HDMV/PGS
Codec ID/Info : Picture based subtitle format used on BDs/HD-DVDs
Duration : 1 h 39 min
Bit rate : 21.6 kb/s
Count of elements : 1735
Stream size : 15.3 MiB (0%)
Language : English
Default : No
Forced : No

Text #2
ID : 4
Format : PGS
Muxing mode : zlib
Codec ID : S_HDMV/PGS
Codec ID/Info : Picture based subtitle format used on BDs/HD-DVDs
Duration : 1 h 39 min
Bit rate : 25.1 kb/s
Count of elements : 1790
Stream size : 17.9 MiB (0%)
Language : German
Default : No
Forced : No

Menu
00:00:00.000 : en:00:00:00.000
00:13:22.802 : en:00:13:22.802
00:26:21.580 : en:00:26:21.580
00:37:47.265 : en:00:37:47.265
00:48:32.910 : en:00:48:32.910
01:00:50.647 : en:01:00:50.647
01:13:27.403 : en:01:13:27.403
01:29:34.369 : en:01:29:34.369
01:41:24.078 : en:01:41:24.078
acfa5e6072fa07e5a484c695ce52d270.jpeg




旅客,假如您要检察本帖躲藏内容请复兴




上一篇:2021动作犯罪《速度与激情9》HD4K/1080P.4.4G
下一篇:第13天 Day.13.2020.720p.BluRay.x264-FREEMAN 1.72GB
您需要登录后才可以回帖 登录 | 立即注册 用百度帐号登录

本版积分规则

首发之家社区成立于2011年3月,内容涉及3C家电、数码生活智能电视,股票软件,4K,体育,软件,教育,游戏等资源指标公式论坛。
  • 官方手机版

  • 抖音号

  • 商务合作

  • Powered by Discuz! X3.4 | Copyright © 2011-2021, Tencent Cloud. | 首发之家社区
  • |网站地图 | mp4d@qq.com|小黑屋|手机版|