返回顶部
  • 发帖数1648
  • 粉丝19

此人很懒,什么也没有留下

  • 最佳新人

  • 活跃会员

    经常参与各类话题的讨论,发帖内容较有主见
  • 热心会员

    经常帮助其他会员答疑
  • 灌水之王

    经常在论坛发帖,且发帖量较大
  • 社区劳模

    长期对论坛的繁荣而不断努力,或发帖主题数500以上
  • 终身成就

    为论坛做出突出贡献的会员
  • QQ绑定

    QQ绑定会员
  • 明星会员

    在论坛有很高知名度会员
  • 沙发达人

    抢沙总数达到100
  • 光悦帅哥

    上传了自己真人秀照片就可以获得勋章哦~
  • 实名认证

    通过身份证实名认证
  • 爆料达人

    发帖爆料达人
开启左侧

[科幻] 沙丘/星际奇兵 Dune.1984.BONUS.DISC.1080p.BluRay 17.80GB

[复制链接]
dolgm 高级首粉 显示全部楼层 发表于 2021-10-23 20:58:47 |阅读模式 打印 上一主题 下一主题
0b981eaa95d39891f7bf99d89ece0009.jpeg
◎译  名 上琊/星际偶兵(港)/上琊魔堡(台)
◎片  名 Dune
◎年  代 1984
◎产  天 好国
◎类  别 行动 / 科幻 / 冒险
◎语  行 英语,意年夜利语
◎上映日期 1984-12-01(好国)
◎豆瓣评分 6.0/10 from 5040 users
◎豆瓣链接 https://movie.douban.com/subject/1293092/
◎片  少 137 分钟
◎导  演 年夜卫·猎戽 David Lynch
◎编  剧 年夜卫·猎戽 David Lynch / 弗兰克·赫伯特 Frank Herbert
◎主  演 肖恩·杨 Sean Young
      帕特里克·斯图我特 Patrick Stewart
      斯汀 Sting
      凯我·麦渴攀拉克伦 Kyle MacLachlan
      理查德·乔丹 Richard Jordan
      西我瓦挠毪曼减诺 Silvana Mangano
      埃沃雷特·麦克凶我 Everett McGill
      肯僧思·麦克米伦 Kenneth McMillan
      简·菲利普斯 Sian Phillips
      尤我根·普洛斯诺 Jürgen Prochnow
      保罗·L·史姑娘 Paul L. Smith
      迪恩·斯托克维我 Dean Stockwell
      琳达·亨特 Linda Hunt
      何塞·费勒 José Ferrer
      维凶妮娅·马德森 Virginia Madsen
      艾丽西亚·维特 Alicia Witt
      年夜卫·猎戽 David Lynch
      马克斯·冯·道多妇 Max von Sydow
      杰克·北斯 Jack Nance
      弗雷得埭琼斯 Freddie Jones
      安杰莉卡·阿推贡 Angélica Aragón

◎标  签 科幻 | 年夜卫·猎戽 | 好国 | 上琊 | DavidLynch | 1984 | 好国影戏 | 1980s

◎简  介

  故事发作正在悠远的将来时期,沙丹四世(何塞·费勒 José Ferrer 饰)是宇宙之王,他靠兹釉祭阅强权战武力掌握着全部帝国。虽然脚握年夜权,但沙丹四世仍是出诱齐感,他以为本人的表弟亚崔迪公爵(尤我根·普洛斯诺 Jürgen Prochnow 饰)诡计谋权篡位,因而将他收配到了悠远的凯勒丹止星擅埽
  
  沙丹四世关于亚崔迪公爵的虐待并出有截至,最初,公爵败北他杀,留下老婆战女子保罗(凯我·麦渴攀拉克伦 Kyle MacLachlan 饰)颠沛流离,两人遁到了广袤的戈壁当中,背本地的土著乞助。土著们将保罗当作了他们的救世主顶礼跪拜,保罗终极成了土著首领,并战名为佳妮(肖恩·杨 Sean Young 饰)确当天女子结为伉俪,但是,复恩的水焰从已正在他的心中燃烧过。

◎获奖状况

  第57届奥斯卡金像奖 ?(1985)
  最好声响(提名) 凯文·奥康奈我?/?比我·瓦僧?/?史蒂妇·马斯洛?/?僧我森·斯托我
Video
ID : 1
ID in the original source medium : 4113 (0x1011)
Format : AVC
Format/Info : Advanced Video Codec
Format profile : High@L4.1
Format settings : CABAC / 3 Ref Frames
Format settings, CABAC : Yes
Format settings, Reference frames : 3 frames
Codec ID : V_MPEG4/ISO/AVC
Duration : 1 h 22 min
Bit rate mode : Variable
Bit rate : 29.4 Mb/s
Maximum bit rate : 30.0 Mb/s
Width : 1 920 pixels
Height : 1 080 pixels
Display aspect ratio : 16:9
Frame rate mode : Constant
Frame rate : 23.976 (24000/1001/189150) FPS
Standard : NTSC
Color space : YUV
Chroma subsampling : 4:2:0
Bit depth : 8 bits
Scan type : Progressive
Bits/(Pixel*Frame) : 0.592
Stream size : 16.9 GiB (95%)
Writing library : x264pro - Adobe CS Exporter Plug-in
Encoding settings : cabac=1 / ref=4 / deblock=1:-2:-2 / analyse=0x3:0x113 / me=umh / subme=9 / psy=1 / psy_rd=1.00:0.25 / mixed_ref=1 / me_range=16 / chroma_me=1 / trellis=1 / 8x8dct=1 / cqm=0 / deadzone=6,6 / fast_pskip=1 / chroma_qp_offset=-4 / threads=16 / lookahead_threads=2 / sliced_threads=0 / slices=4 / nr=0 / decimate=0 / interlaced=0 / bluray_compat=1 / constrained_intra=0 / bframes=3 / b_pyramid=1 / b_adapt=2 / b_bias=0 / direct=3 / weightb=1 / open_gop=0 / weightp=1 / keyint=24 / keyint_min=1 / scenecut=40 / intra_refresh=0 / rc_lookahead=24 / rc=crf / mbtree=1 / crf=1.0 / qcomp=0.80 / qpmin=0 / qpmax=69 / qpstep=4 / vbv_maxrate=30000 / vbv_bufsize=30000 / crf_max=0.0 / nal_hrd=vbr / ip_ratio=1.10 / aq=1:0.50
Language : English
Default : No
Forced : No
Color range : Limited
Color primaries : BT.709
Transfer characteristics : BT.709
Matrix coefficients : BT.709
Original source medium : Blu-ray

Audio
ID : 2
ID in the original source medium : 4352 (0x1100)
Format : PCM
Format settings : Little / Signed
Codec ID : A_PCM/INT/LIT
Duration : 1 h 22 min
Bit rate mode : Constant
Bit rate : 1 536 kb/s
Channel(s) : 2 channels
Sampling rate : 48.0 kHz
Frame rate : 30.000 FPS (1600 SPF)
Bit depth : 16 bits
Stream size : 903 MiB (5%)
Title : Stereo
Language : English
Default : Yes
Forced : No
Original source medium : Blu-ray

Text
ID : 3
ID in the original source medium : 4608 (0x1200)
Format : PGS
Codec ID : S_HDMV/PGS
Codec ID/Info : Picture based subtitle format used on BDs/HD-DVDs
Duration : 1 h 20 min
Bit rate : 59.5 kb/s
Count of elements : 2264
Stream size : 34.3 MiB (0%)
Language : German
Default : No
Forced : No
Original source medium : Blu-ray

Menu
00:00:00.000 : en:Chapter 01
00:01:30.340 : en:Chapter 02
00:11:20.096 : en:Chapter 03
00:24:37.976 : en:Chapter 04
00:44:03.223 : en:Chapter 05
01:00:22.035 : en:Chapter 06
01:15:00.078 : en:Chapter 07


0331e36f27d8bad6381b39c63611bfdd.png 9d2764be9fca37f23f9863182c5208d7.png


旅客,假如您要检察本帖躲藏内容请复兴




上一篇:明日之战 HDR DDP5.1 14.6Gb

精彩评论3

thinkhard 首发之星 显示全部楼层 发表于 2021-10-24 19:04:33
楼主辛苦了,谢谢首发之家!!
thinkhard 首发之星 显示全部楼层 发表于 2021-10-25 18:09:38
假的,是影片介绍。
您需要登录后才可以回帖 登录 | 立即注册 用百度帐号登录

本版积分规则

首发之家社区成立于2011年3月,内容涉及3C家电、数码生活智能电视,股票软件,4K,体育,软件,教育,游戏等资源指标公式论坛。
  • 官方手机版

  • 抖音号

  • 商务合作

  • Powered by Discuz! X3.4 | Copyright © 2011-2021, Tencent Cloud. | 首发之家社区
  • |网站地图 | mp4d@qq.com|小黑屋|手机版|