返回顶部
  • 发帖数964
  • 粉丝12

此人很懒,什么也没有留下

  • 最佳新人

  • 热心会员

    经常帮助其他会员答疑
  • 社区劳模

    长期对论坛的繁荣而不断努力,或发帖主题数500以上
  • 终身成就

    为论坛做出突出贡献的会员
  • 明星会员

    在论坛有很高知名度会员
  • 爆料达人

    发帖爆料达人
开启左侧

[犯罪] [美国]旅行者 The.Traveler.2010.1080p.BluRay.x264.DTS-FGT 6.55GB

[复制链接]
lhb1971a 高级首粉 显示全部楼层 发表于 2021-9-14 20:34:55 |阅读模式 打印 上一主题 下一主题
本帖最初由 lhb1971a 于 2021-9-14 20:35 编纂


7ab3de5b2b8c3.png
◎译  名 游览者
◎片  名 The Traveler
◎年  代 2010
◎产  天 好国,减拿年夜
◎类  别 惊悚 / 恐惧
◎语  行 英语
◎上映日期 2010
◎IMDb评分 4.1/10 from 4505 users
◎IMDb链接 https://www.imdb.com/title/tt1533084/
◎豆瓣评分 4.4/10 from 120 users
◎豆瓣链接 https://movie.douban.com/subject/5162126/
◎片  少 96分钟
◎导  演 迈克我·奥布洛维偶 Michael Oblowitz
◎主  演 约翰·卡西僧 John Cassini
      保罗·麦克凶莱恩 Paul McGillion
      扎克·索恩 Zachary Throne
      迪兰·僧我 Dylan Neal
      渴攀里斯·下瑟 Chris Gauthier
      圆·基默 Val Kilmer
      内我斯·莱纳森 Nels Lennarson

◎标  签 惊悚 | 恐惧 | 好国 | 悬疑 | 立功 | 好国影戏 | 游览者 | 影戏

◎简  介

  正在一个漆黑的圣诞节前夕,小镇上孤独的警少正在值夜班时碰见了一个名叫Mr. Nobody的奥秘女子。跟着冶セ渐深,警少发明这人实际上是一个劣迹斑斑的抨击心极强的杀脚。
Video
ID : 1
Format : AVC
Format/Info : Advanced Video Codec
Format profile : High@L4.1
Format settings : CABAC / 5 Ref Frames
Format settings, CABAC : Yes
Format settings, ReFrames : 5 frames
Codec ID : V_MPEG4/ISO/AVC
Duration : 1 h 35 min
Bit rate : 8 274 kb/s
Width : 1 920 pixels
Height : 816 pixels
Display aspect ratio : 2.35:1
Frame rate mode : Constant
Frame rate : 24.000 FPS
Color space : YUV
Chroma subsampling : 4:2:0
Bit depth : 8 bits
Scan type : Progressive
Bits/(Pixel*Frame) : 0.220
Stream size : 5.41 GiB (83%)
Writing library : x264 core 104 r1713 c276662
Encoding settings : cabac=1 / ref=5 / deblock=1:-1:-1 / analyse=0x3:0x113 / me=umh / subme=7 / psy=1 / psy_rd=1.00:0.00 / mixed_ref=1 / me_range=16 / chroma_me=1 / trellis=1 / 8x8dct=1 / cqm=0 / deadzone=21,11 / fast_pskip=1 / chroma_qp_offset=-2 / threads=6 / sliced_threads=0 / nr=0 / decimate=1 / interlaced=0 / constrained_intra=0 / bframes=3 / b_pyramid=2 / b_adapt=2 / b_bias=0 / direct=3 / weightb=1 / open_gop=0 / weightp=2 / keyint=250 / keyint_min=24 / scenecut=40 / intra_refresh=0 / rc_lookahead=40 / rc=2pass / mbtree=1 / bitrate=8274 / ratetol=1.0 / qcomp=0.60 / qpmin=10 / qpmax=51 / qpstep=4 / cplxblur=20.0 / qblur=0.5 / vbv_maxrate=50000 / vbv_bufsize=50000 / ip_ratio=1.40 / aq=1:1.00 / nal_hrd=none
Language : English
Default : Yes
Forced : No

Audio
ID : 2
Format : DTS
Format/Info : Digital Theater Systems
Codec ID : A_DTS
Duration : 1 h 35 min
Bit rate mode : Constant
Bit rate : 1 509 kb/s
Channel(s) : 6 channels
Channel positions : Front: L C R, Side: L R, LFE
Sampling rate : 48.0 kHz
Frame rate : 93.750 FPS (512 SPF)
Bit depth : 24 bits
Compression mode : Lossy
Stream size : 1.01 GiB (15%)
Language : English
Default : Yes
Forced : No
d3b4b75e28ab7.png 01d23d16071a7.png 0137c83e67c32.png
旅客,假如您要检察本帖躲藏内容请复兴






上一篇:城市猎人 1993 成龙 1080x265
下一篇:有缘的陌生人 Relative.Strangers.2006.1080p.WEBRip.x264-RARBG 1.73GB

精彩评论2

iamhsx@126.com 首发熟人 显示全部楼层 发表于 2021-9-17 12:11:39
感谢s6yd网站,感谢楼主分享。
哥丶心狠痛 高级首粉 显示全部楼层 发表于 2021-9-18 10:46:09
楼主辛苦了,谢谢首发之家!!
您需要登录后才可以回帖 登录 | 立即注册 用百度帐号登录

本版积分规则

首发之家社区成立于2011年3月,内容涉及3C家电、数码生活智能电视,股票软件,4K,体育,软件,教育,游戏等资源指标公式论坛。
  • 官方手机版

  • 抖音号

  • 商务合作

  • Powered by Discuz! X3.4 | Copyright © 2011-2021, Tencent Cloud. | 首发之家社区
  • |网站地图 | mp4d@qq.com|小黑屋|手机版|