返回顶部
  • 发帖数964
  • 粉丝12

此人很懒,什么也没有留下

  • 最佳新人

  • 热心会员

    经常帮助其他会员答疑
  • 社区劳模

    长期对论坛的繁荣而不断努力,或发帖主题数500以上
  • 终身成就

    为论坛做出突出贡献的会员
  • 明星会员

    在论坛有很高知名度会员
  • 爆料达人

    发帖爆料达人
开启左侧

[恐怖] [2021][王国:北方的阿信][WEB-MKV/4.17GB][简繁字幕][1080P]

[复制链接]
lhb1971a 高级首粉 显示全部楼层 发表于 2021-7-26 17:13:51 |阅读模式 打印 上一主题 下一主题
46caff21081723d13d6871a92490eb3a.jpeg

◎译  名 王国:北圆的阿疑 / 王国:阿疑传 / 尸战晨陈:俗疑传(港 / 台) / 李尸晨陈:别传 / 尸战晨陈:前传 / 尸战晨陈:阿疑传 / 王国:前传 / 王外洋传 / 王外洋传:阿疑篇 / 北圆的阿疑 / Kingdom: Ashin of the North / Kingdom: Ashin-jeon
◎片  名 ??:???
◎年  代 2021
◎产  天 韩国
◎类  别 剧情 / 恐惧 / 时装
◎语  行 韩语
◎上映日期 2021-07-23(韩国)
◎IMDb链接 https://www.imdb.com/title/tt13412252/
◎豆瓣评分 7.0/10 (1065人评价)
◎豆瓣链接 https://movie.douban.com/subject/35151297/
◎片  少 92分钟
◎导  演 金成勋 Seong-hoon Kim (id:1341016)
◎编  剧 金银姬 Eun-hee Kim (id:1320116)
◎演  员 齐智贤 Gianna Jun (id:1035649)
      朴秉恩 Byung-eun Park (id:1320142)
      金诗俗 Si-ah Kim (id:1400241)
      金雷夏 Roe-ha Kim (id:1213426)
      具乔焕 Gu Kyohwan (id:1363439)

◎标  签 Netflix / 丧尸 / 齐智贤 / 韩国 / 王国 / 王外洋传 / 惊悚 / 2021

◎简  介
  阿疑战其女是假寓于晨陈王国的番邦外族。他们碰到了一种奥秘徐病,那进而招致俗疑走上了变节、成见战复恩的门路。
##### MediaInfo ######
General
Unique ID : 116238740245676158945233398780592049280 (0x5772C45DA19AACFE7CDF2DB4CB16CC80)
Complete name : Kingdom.Ashin.of.the.North.2021.Netflix.WEB-DL.1080P.x264.DDP-SHOUFAZJ.mkv
Format : Matroska
Format version : Version 4
File size : 4.17 GiB
Duration : 1 h 33 min
Overall bit rate mode : Variable
Overall bit rate : 6 358 kb/s
Encoded date : UTC 2021-07-23 07:04:14
Writing application : mkvmerge v57.0.0 ('Till The End') 64-bit
Writing library : libebml v1.4.2 + libmatroska v1.6.4

Video
ID : 1
Format : AVC
Format/Info : Advanced Video Codec
Format profile : Main@L4
Format settings : CABAC / 3 Ref Frames
Format settings, CABAC : Yes
Format settings, Reference frames : 3 frames
Codec ID : V_MPEG4/ISO/AVC
Duration : 1 h 33 min
Bit rate mode : Variable
Bit rate : 5 800 kb/s
Maximum bit rate : 8 700 kb/s
Width : 1 920 pixels
Height : 1 080 pixels
Display aspect ratio : 16:9
Frame rate mode : Constant
Frame rate : 23.976 (24000/1001) FPS
Color space : YUV
Chroma subsampling : 4:2:0
Bit depth : 8 bits
Scan type : Progressive
Bits/(Pixel*Frame) : 0.117
Stream size : 3.66 GiB (88%)
Writing library : x264 core 148 r2722 1b0121b
Encoding settings : cabac=1 / ref=3 / deblock=1:0:0 / analyse=0x1:0x111 / me=umh / subme=10 / psy=1 / psy_rd=1.00:0.00 / mixed_ref=1 / me_range=24 / chroma_me=1 / trellis=2 / 8x8dct=0 / cqm=0 / deadzone=21,11 / fast_pskip=1 / chroma_qp_offset=-2 / threads=8 / lookahead_threads=1 / sliced_threads=0 / nr=0 / decimate=1 / interlaced=0 / bluray_compat=0 / stitchable=1 / constrained_intra=0 / bframes=2 / b_pyramid=0 / b_adapt=2 / b_bias=0 / direct=3 / weightb=1 / open_gop=0 / weightp=2 / keyint=250 / keyint_min=23 / scenecut=0 / intra_refresh=0 / rc_lookahead=48 / rc=2pass / mbtree=1 / bitrate=5800 / ratetol=1.0 / qcomp=0.50 / qpmin=6 / qpmax=51 / qpstep=4 / cplxblur=20.0 / qblur=0.5 / vbv_maxrate=8700 / vbv_bufsize=11600 / nal_hrd=vbr / filler=0 / ip_ratio=1.40 / aq=1:1.00
Default : Yes
Forced : No

Audio
ID : 2
Format : E-AC-3 JOC
Format/Info : Enhanced AC-3 with Joint Object Coding
Commercial name : Dolby Digital Plus with Dolby Atmos
Codec ID : A_EAC3
Duration : 1 h 33 min
Bit rate mode : Constant
Bit rate : 768 kb/s
Channel(s) : 6 channels
Channel layout : L R C LFE Ls Rs
Sampling rate : 48.0 kHz
Frame rate : 31.250 FPS (1536 SPF)
Compression mode : Lossy
Stream size : 515 MiB (12%)
Title : ???
Language : Korean
Service kind : Complete Main
Default : No
Forced : No
Complexity index : 16
Number of dynamic objects : 15
Bed channel count : 1 channel
Bed channel configuration : LFE

Text #1
ID : 3
Format : UTF-8
Codec ID : S_TEXT/UTF8
Codec ID/Info : UTF-8 Plain Text
Duration : 1 h 32 min
Bit rate : 19 b/s
Count of elements : 429
Stream size : 13.2 KiB (0%)
Title : English
Language : English
Default : Yes
Forced : No

Text #2
ID : 4
Format : UTF-8
Codec ID : S_TEXT/UTF8
Codec ID/Info : UTF-8 Plain Text
Duration : 1 h 32 min
Bit rate : 30 b/s
Count of elements : 430
Stream size : 20.5 KiB (0%)
Title : ????
Language : Arabic
Default : No
Forced : No

Text #3
ID : 5
Format : UTF-8
Codec ID : S_TEXT/UTF8
Codec ID/Info : UTF-8 Plain Text
Duration : 1 h 32 min
Bit rate : 18 b/s
Count of elements : 439
Stream size : 12.7 KiB (0%)
Title : 中文(简体)
Language : Chinese
Default : No
Forced : No

Text #4
ID : 6
Format : UTF-8
Codec ID : S_TEXT/UTF8
Codec ID/Info : UTF-8 Plain Text
Duration : 1 h 32 min
Bit rate : 18 b/s
Count of elements : 436
Stream size : 12.7 KiB (0%)
Title : 中文(繁體)
Language : Chinese
Default : No
Forced : No

Text #5
ID : 7
Format : UTF-8
Codec ID : S_TEXT/UTF8
Codec ID/Info : UTF-8 Plain Text
Duration : 1 h 32 min
Bit rate : 18 b/s
Count of elements : 430
Stream size : 12.6 KiB (0%)
Title : hrvatski
Language : Croatian
Default : No
Forced : No

Text #6
ID : 8
Format : UTF-8
Codec ID : S_TEXT/UTF8
Codec ID/Info : UTF-8 Plain Text
Duration : 1 h 32 min
Bit rate : 18 b/s
Count of elements : 430
Stream size : 12.4 KiB (0%)
Title : ?esky
Language : Czech
Default : No
Forced : No

Text #7
ID : 9
Format : UTF-8
Codec ID : S_TEXT/UTF8
Codec ID/Info : UTF-8 Plain Text
Duration : 1 h 32 min
Bit rate : 19 b/s
Count of elements : 430
Stream size : 13.2 KiB (0%)
Title : dansk
Language : Danish
Default : No
Forced : No

Text #8
ID : 10
Format : UTF-8
Codec ID : S_TEXT/UTF8
Codec ID/Info : UTF-8 Plain Text
Duration : 1 h 32 min
Bit rate : 19 b/s
Count of elements : 430
Stream size : 13.2 KiB (0%)
Title : Nederlands
Language : Dutch
Default : No
Forced : No

Text #9
ID : 11
Format : UTF-8
Codec ID : S_TEXT/UTF8
Codec ID/Info : UTF-8 Plain Text
Duration : 1 h 32 min
Bit rate : 19 b/s
Count of elements : 430
Stream size : 13.0 KiB (0%)
Title : Vlaams
Language : Finnish
Default : No
Forced : No

Text #10
ID : 12
Format : UTF-8
Codec ID : S_TEXT/UTF8
Codec ID/Info : UTF-8 Plain Text
Duration : 1 h 32 min
Bit rate : 21 b/s
Count of elements : 434
Stream size : 14.3 KiB (0%)
Title : Fran?ais
Language : French
Default : No
Forced : No

Text #11
ID : 13
Format : UTF-8
Codec ID : S_TEXT/UTF8
Codec ID/Info : UTF-8 Plain Text
Duration : 1 h 32 min
Bit rate : 20 b/s
Count of elements : 430
Stream size : 14.0 KiB (0%)
Title : Deutsch
Language : German
Default : No
Forced : No

Text #12
ID : 14
Format : UTF-8
Codec ID : S_TEXT/UTF8
Codec ID/Info : UTF-8 Plain Text
Duration : 1 h 32 min
Bit rate : 34 b/s
Count of elements : 430
Stream size : 23.3 KiB (0%)
Title : ελληνικ?
Language : Greek
Default : No
Forced : No

Text #13
ID : 15
Format : UTF-8
Codec ID : S_TEXT/UTF8
Codec ID/Info : UTF-8 Plain Text
Duration : 1 h 32 min
Bit rate : 28 b/s
Count of elements : 430
Stream size : 19.2 KiB (0%)
Title : ????
Language : Hebrew
Default : No
Forced : No

Text #14
ID : 16
Format : UTF-8
Codec ID : S_TEXT/UTF8
Codec ID/Info : UTF-8 Plain Text
Duration : 1 h 32 min
Bit rate : 18 b/s
Count of elements : 430
Stream size : 12.6 KiB (0%)
Title : Magyar
Language : Hungarian
Default : No
Forced : No

Text #15
ID : 17
Format : UTF-8
Codec ID : S_TEXT/UTF8
Codec ID/Info : UTF-8 Plain Text
Duration : 1 h 32 min
Bit rate : 18 b/s
Count of elements : 430
Stream size : 12.9 KiB (0%)
Title : Indonesia
Language : Indonesian
Default : No
Forced : No

Text #16
ID : 18
Format : UTF-8
Codec ID : S_TEXT/UTF8
Codec ID/Info : UTF-8 Plain Text
Duration : 1 h 32 min
Bit rate : 19 b/s
Count of elements : 429
Stream size : 13.3 KiB (0%)
Title : Italiano
Language : Italian
Default : No
Forced : No

Text #17
ID : 19
Format : UTF-8
Codec ID : S_TEXT/UTF8
Codec ID/Info : UTF-8 Plain Text
Duration : 1 h 32 min
Bit rate : 19 b/s
Count of elements : 380
Stream size : 13.4 KiB (0%)
Title : 日本語
Language : Japanese
Default : No
Forced : No

Text #18
ID : 20
Format : UTF-8
Codec ID : S_TEXT/UTF8
Codec ID/Info : UTF-8 Plain Text
Duration : 1 h 28 min
Bit rate : 53 b/s
Count of elements : 974
Stream size : 35.0 KiB (0%)
Title : ???
Language : Korean
Default : No
Forced : No

Text #19
ID : 21
Format : UTF-8
Codec ID : S_TEXT/UTF8
Codec ID/Info : UTF-8 Plain Text
Duration : 1 h 32 min
Bit rate : 18 b/s
Count of elements : 430
Stream size : 12.8 KiB (0%)
Title : ???? ?????
Language : Malay
Default : No
Forced : No

Text #20
ID : 22
Format : UTF-8
Codec ID : S_TEXT/UTF8
Codec ID/Info : UTF-8 Plain Text
Duration : 1 h 32 min
Bit rate : 18 b/s
Count of elements : 430
Stream size : 12.5 KiB (0%)
Title : norsk
Language : Norwegian Bokmal
Default : No
Forced : No

Text #21
ID : 23
Format : UTF-8
Codec ID : S_TEXT/UTF8
Codec ID/Info : UTF-8 Plain Text
Duration : 1 h 32 min
Bit rate : 18 b/s
Count of elements : 429
Stream size : 12.7 KiB (0%)
Title : J?zyk polski
Language : Polish
Default : No
Forced : No

Text #22
ID : 24
Format : UTF-8
Codec ID : S_TEXT/UTF8
Codec ID/Info : UTF-8 Plain Text
Duration : 1 h 32 min
Bit rate : 19 b/s
Count of elements : 430
Stream size : 13.0 KiB (0%)
Title : Português
Language : Portuguese
Default : No
Forced : No

Text #23
ID : 25
Format : UTF-8
Codec ID : S_TEXT/UTF8
Codec ID/Info : UTF-8 Plain Text
Duration : 1 h 32 min
Bit rate : 18 b/s
Count of elements : 429
Stream size : 12.8 KiB (0%)
Title : Português
Language : Portuguese
Default : No
Forced : No

Text #24
ID : 26
Format : UTF-8
Codec ID : S_TEXT/UTF8
Codec ID/Info : UTF-8 Plain Text
Duration : 1 h 32 min
Bit rate : 22 b/s
Count of elements : 430
Stream size : 15.1 KiB (0%)
Title : Limba roman?
Language : Romanian
Default : No
Forced : No

Text #25
ID : 27
Format : UTF-8
Codec ID : S_TEXT/UTF8
Codec ID/Info : UTF-8 Plain Text
Duration : 1 h 32 min
Bit rate : 30 b/s
Count of elements : 430
Stream size : 20.5 KiB (0%)
Title : русский язык
Language : Russian
Default : No
Forced : No

Text #26
ID : 28
Format : UTF-8
Codec ID : S_TEXT/UTF8
Codec ID/Info : UTF-8 Plain Text
Duration : 1 h 32 min
Bit rate : 19 b/s
Count of elements : 430
Stream size : 13.4 KiB (0%)
Title : Espa?ol?(Latinoamérica)
Language : Spanish
Default : No
Forced : No

Text #27
ID : 29
Format : UTF-8
Codec ID : S_TEXT/UTF8
Codec ID/Info : UTF-8 Plain Text
Duration : 1 h 32 min
Bit rate : 19 b/s
Count of elements : 430
Stream size : 13.0 KiB (0%)
Title : Espa?ol?(Espa?a)
Language : Spanish
Default : No
Forced : No

Text #28
ID : 30
Format : UTF-8
Codec ID : S_TEXT/UTF8
Codec ID/Info : UTF-8 Plain Text
Duration : 1 h 32 min
Bit rate : 18 b/s
Count of elements : 430
Stream size : 12.6 KiB (0%)
Title : svenska
Language : Swedish
Default : No
Forced : No

Text #29
ID : 31
Format : UTF-8
Codec ID : S_TEXT/UTF8
Codec ID/Info : UTF-8 Plain Text
Duration : 1 h 32 min
Bit rate : 54 b/s
Count of elements : 432
Stream size : 37.0 KiB (0%)
Title : ???
Language : Thai
Default : No
Forced : No

Text #30
ID : 32
Format : UTF-8
Codec ID : S_TEXT/UTF8
Codec ID/Info : UTF-8 Plain Text
Duration : 1 h 32 min
Bit rate : 19 b/s
Count of elements : 430
Stream size : 13.5 KiB (0%)
Title : Türk
Language : Turkish
Default : No
Forced : No

Text #31
ID : 33
Format : UTF-8
Codec ID : S_TEXT/UTF8
Codec ID/Info : UTF-8 Plain Text
Duration : 1 h 32 min
Bit rate : 30 b/s
Count of elements : 430
Stream size : 20.9 KiB (0%)
Title : Укра?нська
Language : Ukrainian
Default : No
Forced : No

Text #32
ID : 34
Format : UTF-8
Codec ID : S_TEXT/UTF8
Codec ID/Info : UTF-8 Plain Text
Duration : 1 h 32 min
Bit rate : 26 b/s
Count of elements : 430
Stream size : 18.1 KiB (0%)
Title : Ti?ng Vi?t
Language : Vietnamese
Default : No
Forced : No





王国:北圆的阿疑[简繁字幕].Kingdom.Ashin.of.the.North.2021.Netflix.WEB-DL.1080p..torrent (15.03 KB, 下载次数: 23)




上一篇:[2021][王国:北方的阿信][WEB-MKV/8.80GB][简繁字幕][1080P]
下一篇:[2021][尸战朝鲜:雅信传/王国:北方的阿信][WEB-MKV/4.67GB][官方简繁中字][1080P]

精彩评论5

haibo1hao 首发之星 显示全部楼层 发表于 2021-7-27 08:25:44
楼主辛苦了,谢谢首发之家!
一达 首发之星 显示全部楼层 发表于 2021-7-27 13:08:19
我看不错噢,谢谢首发之家!
Yo.G 初来首发 显示全部楼层 发表于 2021-7-30 11:42:51
楼主辛苦了,谢谢首发之家!
mfkfeifei 首发之星 显示全部楼层 发表于 2021-8-20 23:09:46
楼主辛苦了,谢谢首发之家!!
悍马 首发熟人 显示全部楼层 发表于 2021-11-19 12:01:25
楼主辛苦了,谢谢首发之家!!
您需要登录后才可以回帖 登录 | 立即注册 用百度帐号登录

本版积分规则

首发之家社区成立于2011年3月,内容涉及3C家电、数码生活智能电视,股票软件,4K,体育,软件,教育,游戏等资源指标公式论坛。
  • 官方手机版

  • 抖音号

  • 商务合作

  • Powered by Discuz! X3.4 | Copyright © 2011-2021, Tencent Cloud. | 首发之家社区
  • |网站地图 | mp4d@qq.com|小黑屋|手机版|