返回顶部
  • 发帖数964
  • 粉丝12

此人很懒,什么也没有留下

  • 最佳新人

  • 热心会员

    经常帮助其他会员答疑
  • 社区劳模

    长期对论坛的繁荣而不断努力,或发帖主题数500以上
  • 终身成就

    为论坛做出突出贡献的会员
  • 明星会员

    在论坛有很高知名度会员
  • 爆料达人

    发帖爆料达人
开启左侧

[动作] [2021][火药奶昔][WEB-MKV/3.51GB][1080P]

  [复制链接]
lhb1971a 高级首粉 显示全部楼层 发表于 2021-7-26 08:51:45 |阅读模式 打印 上一主题 下一主题
bf2adc6c583d79df77ac239f0cdaf6b5.jpeg

◎译  名 炸药奶昔 / Bloody Milkshake
◎片  名 Gunpowder Milkshake
◎年  代 2021
◎产  天 法国 / 好国 / 德国
◎类  别 行动 / 惊悚 / 冒险
◎语  行 英语
◎上映日期 2021-07-14(好国)
◎IMDb链接 https://www.imdb.com/title/tt8368408/
◎豆瓣评分 5.8/10 (724人评价)
◎豆瓣链接 https://movie.douban.com/subject/30425275/
◎导  演 纳沃特·帕普莎多 Navot Papushado (id:1410586)
◎编  剧 纳沃特·帕普莎多 Navot Papushado (id:1410586)
◎演  员 凯伦·凶兰 Karen Gillan (id:1036344)
       琳挠毪海蒂 Lena Headey (id:1053571)
       卡推·古偶诺 Carla Gugino (id:1049495)
       杨紫琼 Michelle Yeoh (id:1022664)
       安凶推·贝塞特 Angela Bassett (id:1025214)
       保罗·凶亚玛提 Paul Giamatti (id:1017893)
       推我妇·伊内森 Ralph Ineson (id:1108378)
       弗蕾娅·艾伦 Freya Allan (id:1402757)
       克洛伊·科我曼 Chloe Coleman (id:1369480)
       罗伯特?马瑟 Robert Maaser (id:1414390)
       亚当·那减提斯 Adam Nagaitis (id:1348296)
       塞缪我·安德森 Samuel Anderson (id:1342585)
       乔梅杨 Mai Duong Kieu (id:1415385)
       杰克·班戴推 Jack Bandeira (id:1425671)
       约书亚·格罗斯 Joshua Grothe (id:1369730)
       艾德·伯偶 Ed Birch (id:1337343)
       年夜卫·齐梅我席德 David Zimmerschied (id:1333797)
       安妮塔·欧推藤凶 Anita Olatunji (id:1428567)
       乔安挠毪波宾 Joanna Bobin (id:1449107)
       迈克我·塞瑞岑 Michael Seresin (id:1009970)

◎标  签 行动 / 好国 / 立功 / 2021 / 杨紫琼 / 凯伦·凶兰 / 玄色诙谐 / 好国影戏

◎简  介
  凯伦·凶兰(《复恩者同盟4》)、杨紫琼、琳挠毪海蒂(《权利的游戏》)、安凶推·贝塞特(《乌豹〗暴将携手出演齐女性卡司行动惊悚片《炸药奶昔〗爆亚伦·凯莎莱斯战纳沃特·帕普莎多(《年夜唤睬》)执导,两仁宅Ehud Lavski编写脚本,金牌行动片建造人Andrew Rona战Alex Heineman(《空中救援》《通勤救援〗暴担当造片。                                    
                               影片报告了逾越三代鹊滥女性杀脚故事。斯嘉丽(海蒂 饰)是一位专业杀脚,为了庇护幼女伊娃(凶兰 饰)的宁静,她将女女拜托给老友,抛头露面。多年后,伊娃走上了母亲的老陆爆成为热血无情的幢。正在一次动作中,伊娃失慎让局势得控,令无辜的八岁小女孩堕入险境。伊娃于心没有忍,为了救人,只能变节构造。运气终极让母女相逢,她们结合其他退戚的女杀脚,一同背夺走了她们统统的杀脚构造倡议复恩。
##### MediaInfo ######
General
Unique ID                                : 149611778020888136376987040612789024172 (0x708E2E2A42B1D9E5E45F194E680C75AC)
Complete name                            : Gunpowder.Milkshake.2021.1080p.NF.WEB-DL.DDP5.1.Atmos.x264-10002@SHOUFAZJ.COM.mkv
Format                                   : Matroska
Format version                           : Version 4
File size                                : 3.51 GiB
Duration                                 : 1 h 54 min
Overall bit rate mode                    : Variable
Overall bit rate                         : 4 373 kb/s
Encoded date                             : UTC 2021-07-23 08:53:18
Writing application                      : mkvmerge v44.0.0 ('Domino') 64-bit
Writing library                          : libebml v1.3.10 + libmatroska v1.5.2

Video
ID                                       : 1
Format                                   : AVC
Format/Info                              : Advanced Video Codec
Format profile                           : Main@L4
Format settings                          : CABAC / 3 Ref Frames
Format settings, CABAC                   : Yes
Format settings, Reference frames        : 3 frames
Codec ID                                 : V_MPEG4/ISO/AVC
Duration                                 : 1 h 54 min
Bit rate mode                            : Variable
Bit rate                                 : 2 856 kb/s
Maximum bit rate                         : 4 980 kb/s
Width                                    : 1 920 pixels
Height                                   : 1 080 pixels
Display aspect ratio                     : 16:9
Frame rate mode                          : Constant
Frame rate                               : 24.000 FPS
Color space                              : YUV
Chroma subsampling                       : 4:2:0
Bit depth                                : 8 bits
Scan type                                : Progressive
Bits/(Pixel*Frame)                       : 0.057
Stream size                              : 2.38 GiB (68%)
Writing library                          : x264 core 148 r2722 1b0121b
Encoding settings                        : cabac=1 / ref=3 / deblock=1:0:0 / analyse=0x1:0x111 / me=umh / subme=10 / psy=1 / psy_rd=1.00:0.00 / mixed_ref=1 / me_range=24 / chroma_me=1 / trellis=2 / 8x8dct=0 / cqm=0 / deadzone=21,11 / fast_pskip=1 / chroma_qp_offset=-2 / threads=8 / lookahead_threads=1 / sliced_threads=0 / nr=0 / decimate=1 / interlaced=0 / bluray_compat=0 / stitchable=1 / constrained_intra=0 / bframes=2 / b_pyramid=0 / b_adapt=2 / b_bias=0 / direct=3 / weightb=1 / open_gop=0 / weightp=2 / keyint=250 / keyint_min=24 / scenecut=0 / intra_refresh=0 / rc_lookahead=48 / rc=2pass / mbtree=1 / bitrate=2856 / ratetol=1.0 / qcomp=0.50 / qpmin=6 / qpmax=51 / qpstep=4 / cplxblur=20.0 / qblur=0.5 / vbv_maxrate=4980 / vbv_bufsize=6640 / nal_hrd=vbr / filler=0 / ip_ratio=1.40 / aq=1:1.00
Default                                  : Yes
Forced                                   : No

Audio #1
ID                                       : 2
Format                                   : E-AC-3 JOC
Format/Info                              : Enhanced AC-3 with Joint Object Coding
Commercial name                          : Dolby Digital Plus with Dolby Atmos
Codec ID                                 : A_EAC3
Duration                                 : 1 h 54 min
Bit rate mode                            : Constant
Bit rate                                 : 768 kb/s
Channel(s)                               : 6 channels
Channel layout                           : L R C LFE Ls Rs
Sampling rate                            : 48.0 kHz
Frame rate                               : 31.250 FPS (1536 SPF)
Compression mode                         : Lossy
Stream size                              : 631 MiB (18%)
Title                                    : English
Language                                 : English
Service kind                             : Complete Main
Default                                  : Yes
Forced                                   : No
Complexity index                         : 16
Number of dynamic objects                : 15
Bed channel count                        : 1 channel
Bed channel configuration                : LFE

Audio #2
ID                                       : 3
Format                                   : E-AC-3
Format/Info                              : Enhanced AC-3
Commercial name                          : Dolby Digital Plus
Codec ID                                 : A_EAC3
Duration                                 : 1 h 54 min
Bit rate mode                            : Constant
Bit rate                                 : 640 kb/s
Channel(s)                               : 6 channels
Channel layout                           : L R C LFE Ls Rs
Sampling rate                            : 48.0 kHz
Frame rate                               : 31.250 FPS (1536 SPF)
Compression mode                         : Lossy
Stream size                              : 526 MiB (15%)
Title                                    : French
Language                                 : French
Service kind                             : Complete Main
Default                                  : No
Forced                                   : No

Text #1
ID                                       : 4
Format                                   : UTF-8
Codec ID                                 : S_TEXT/UTF8
Codec ID/Info                            : UTF-8 Plain Text
Duration                                 : 1 h 54 min
Bit rate                                 : 66 b/s
Count of elements                        : 1559
Stream size                              : 55.8 KiB (0%)
Title                                    : English
Language                                 : English
Default                                  : Yes
Forced                                   : No

Text #2
ID                                       : 5
Format                                   : UTF-8
Codec ID                                 : S_TEXT/UTF8
Codec ID/Info                            : UTF-8 Plain Text
Duration                                 : 1 s 875 ms
Bit rate                                 : 59 b/s
Count of elements                        : 1
Stream size                              : 14.0 Bytes (0%)
Title                                    : English (Forced)
Language                                 : English
Default                                  : No
Forced                                   : Yes

Text #3
ID                                       : 6
Format                                   : UTF-8
Codec ID                                 : S_TEXT/UTF8
Codec ID/Info                            : UTF-8 Plain Text
Duration                                 : 1 h 48 min
Bit rate                                 : 32 b/s
Count of elements                        : 701
Stream size                              : 25.6 KiB (0%)
Title                                    : Danish
Language                                 : Danish
Default                                  : No
Forced                                   : No

Text #4
ID                                       : 7
Format                                   : UTF-8
Codec ID                                 : S_TEXT/UTF8
Codec ID/Info                            : UTF-8 Plain Text
Duration                                 : 1 h 48 min
Bit rate                                 : 32 b/s
Count of elements                        : 756
Stream size                              : 25.7 KiB (0%)
Title                                    : Finnish
Language                                 : Finnish
Default                                  : No
Forced                                   : No

Text #5
ID                                       : 8
Format                                   : UTF-8
Codec ID                                 : S_TEXT/UTF8
Codec ID/Info                            : UTF-8 Plain Text
Duration                                 : 1 h 53 min
Bit rate                                 : 32 b/s
Count of elements                        : 988
Stream size                              : 27.1 KiB (0%)
Title                                    : French
Language                                 : French
Default                                  : No
Forced                                   : No

Text #6
ID                                       : 9
Format                                   : UTF-8
Codec ID                                 : S_TEXT/UTF8
Codec ID/Info                            : UTF-8 Plain Text
Duration                                 : 1 h 49 min
Bit rate                                 : 30 b/s
Count of elements                        : 750
Stream size                              : 24.8 KiB (0%)
Title                                    : Norwegian Bokmal
Language                                 : Norwegian Bokmal
Default                                  : No
Forced                                   : No

Text #7
ID                                       : 10
Format                                   : UTF-8
Codec ID                                 : S_TEXT/UTF8
Codec ID/Info                            : UTF-8 Plain Text
Duration                                 : 1 h 48 min
Bit rate                                 : 34 b/s
Count of elements                        : 760
Stream size                              : 27.5 KiB (0%)
Title                                    : Swedish
Language                                 : Swedish
Default                                  : No
Forced                                   : No





炸药奶昔[中笔墨幕].Gunpowder.Milkshake.2021.1080p.NF.WEB-DL.DDP5.1.Atmos.x264-10.torrent (13.32 KB, 下载次数: 10)




上一篇:[2021][血色天劫][WEB-MKV/9.38GB][简繁字幕][1080P]
下一篇:[2021][雅各布之妻][BD-MKV/5.51GB][简繁字幕][1080P]

精彩评论2

xuyi198047 高级首粉 显示全部楼层 发表于 2021-7-26 19:45:40
楼主辛苦了,谢谢首发之家!!
哥丶心狠痛 高级首粉 显示全部楼层 发表于 2021-7-28 12:23:02
楼主辛苦了,谢谢首发之家!!
您需要登录后才可以回帖 登录 | 立即注册 用百度帐号登录

本版积分规则

首发之家社区成立于2011年3月,内容涉及3C家电、数码生活智能电视,股票软件,4K,体育,软件,教育,游戏等资源指标公式论坛。
  • 官方手机版

  • 抖音号

  • 商务合作

  • Powered by Discuz! X3.4 | Copyright © 2011-2021, Tencent Cloud. | 首发之家社区
  • |网站地图 | mp4d@qq.com|小黑屋|手机版|