返回顶部
  • 发帖数964
  • 粉丝12

此人很懒,什么也没有留下

  • 最佳新人

  • 热心会员

    经常帮助其他会员答疑
  • 社区劳模

    长期对论坛的繁荣而不断努力,或发帖主题数500以上
  • 终身成就

    为论坛做出突出贡献的会员
  • 明星会员

    在论坛有很高知名度会员
  • 爆料达人

    发帖爆料达人
开启左侧

[剧情] [2021][管道][WEB-MKV/2.20GB][简繁字幕][1080P]

[复制链接]
lhb1971a 高级首粉 显示全部楼层 发表于 2021-7-26 08:50:53 |阅读模式 打印 上一主题 下一主题
50bb0588728d8724a0ff2318571b494d.jpeg

◎译  名 管讲 / 管线 / Pipeline
◎片  名 ?????
◎年  代 2021
◎产  天 韩国
◎语  行 韩语
◎上映日期 2021-05-26(韩国)
◎IMDb链接 https://www.imdb.com/title/tt14716932/
◎豆瓣评分 5.9/10 (880人评价)
◎豆瓣链接 https://movie.douban.com/subject/34777781/
◎导  演 庾河 Ha Yu (id:1304207)
◎演  员 缓仁国 In-Guk Seo (id:1323405)
       李洙赫 Soo-hyuk Lee (id:1313466)
       音文硕 Moon-搜索引擎优化k Eum (id:1400216)
       太恒浩 Tae Hang-ho (id:1373779)
       柳圣贤 Ryoo Seong-hyeon (id:1383040)
       裴侑蓝 Bae Yoo-ram (id:1378640)
       禹康平易近 Kang-min Woo (id:1436392)

◎标  签 李洙赫 / 缓仁国 / 韩国 / 韩国影戏 / 剧情 / 影戏 / 2021 / 李洙赫???

◎简  介
  形貌偷走了躲藏正在韩国天底下数千亿的「油」而且胡想著要顺转冉酊的六位匪油者,和他们之间所演出著的狗血团队协作故事,是一部立功文娱影戏,而匪油那范例的立功也是极新的题材,也将呈现本性明显的人物设定,念必剧情也将对各人带去酣畅感触感染。by tvnhanju.com
##### MediaInfo ######
General
Unique ID                                : 339988076367382012349012535379180297459 (0xFFC7525B00189AEC6D8D0147DFFE9CF3)
Complete name                            : Pipeline.2021.1080p.WEB-DL.H265.AAC-10001@SHOUFAZJ.COM.mkv
Format                                   : Matroska
Format version                           : Version 4
File size                                : 2.20 GiB
Duration                                 : 1 h 47 min
Overall bit rate                         : 2 923 kb/s
Encoded date                             : UTC 2021-07-23 12:41:02
Writing application                      : mkvmerge v56.1.0 ('My Friend') 64-bit
Writing library                          : libebml v1.4.2 + libmatroska v1.6.4

Video
ID                                       : 1
Format                                   : HEVC
Format/Info                              : High Efficiency Video Coding
Format profile                           : Main@L4@Main
Codec ID                                 : V_MPEGH/ISO/HEVC
Duration                                 : 1 h 47 min
Bit rate                                 : 2 730 kb/s
Width                                    : 1 920 pixels
Height                                   : 792 pixels
Display aspect ratio                     : 2.40:1
Frame rate mode                          : Constant
Frame rate                               : 24.000 FPS
Color space                              : YUV
Chroma subsampling                       : 4:2:0
Bit depth                                : 8 bits
Bits/(Pixel*Frame)                       : 0.075
Stream size                              : 2.05 GiB (93%)
Default                                  : Yes
Forced                                   : No

Audio
ID                                       : 2
Format                                   : AAC LC
Format/Info                              : Advanced Audio Codec Low Complexity
Codec ID                                 : A_AAC-2
Duration                                 : 1 h 47 min
Bit rate                                 : 192 kb/s
Channel(s)                               : 2 channels
Channel layout                           : L R
Sampling rate                            : 44.1 kHz
Frame rate                               : 43.066 FPS (1024 SPF)
Compression mode                         : Lossy
Stream size                              : 146 MiB (6%)
Language                                 : Korean
Default                                  : Yes
Forced                                   : No

Text #1
ID                                       : 3
Format                                   : UTF-8
Codec ID                                 : S_TEXT/UTF8
Codec ID/Info                            : UTF-8 Plain Text
Duration                                 : 1 h 42 min
Bit rate                                 : 48 b/s
Count of elements                        : 1476
Stream size                              : 36.3 KiB (0%)
Title                                    : Chinese Simplified
Language                                 : Chinese
Default                                  : Yes
Forced                                   : No

Text #2
ID                                       : 4
Format                                   : UTF-8
Codec ID                                 : S_TEXT/UTF8
Codec ID/Info                            : UTF-8 Plain Text
Duration                                 : 1 h 42 min
Bit rate                                 : 48 b/s
Count of elements                        : 1476
Stream size                              : 36.3 KiB (0%)
Title                                    : Chinese Traditional
Language                                 : Chinese
Default                                  : No
Forced                                   : No

Text #3
ID                                       : 5
Format                                   : UTF-8
Codec ID                                 : S_TEXT/UTF8
Codec ID/Info                            : UTF-8 Plain Text
Duration                                 : 1 h 43 min
Bit rate                                 : 51 b/s
Count of elements                        : 1502
Stream size                              : 39.0 KiB (0%)
Title                                    : English
Language                                 : English
Default                                  : No
Forced                                   : No

管讲[简繁字幕].Pipeline.2021.1080p.WEB-DL.H265.AAC-10001@SHOUFAZJ.COM 2.20GB.torrent (9.99 KB, 下载次数: 11)





上一篇:[2020][邻居][BD-MKV/13.77GB][简繁字幕][1080P]
下一篇:[2021][王国:北方的阿信][WEB-MKV/8.80GB][简繁字幕][1080P]

精彩评论2

哥丶心狠痛 高级首粉 显示全部楼层 发表于 2021-7-28 12:23:17
楼主辛苦了,谢谢首发之家!!
wenmin106 初来首发 显示全部楼层 发表于 2021-7-28 20:34:08
楼主辛苦了,谢谢首发之家!!
您需要登录后才可以回帖 登录 | 立即注册 用百度帐号登录

本版积分规则

首发之家社区成立于2011年3月,内容涉及3C家电、数码生活智能电视,股票软件,4K,体育,软件,教育,游戏等资源指标公式论坛。
  • 官方手机版

  • 抖音号

  • 商务合作

  • Powered by Discuz! X3.4 | Copyright © 2011-2021, Tencent Cloud. | 首发之家社区
  • |网站地图 | mp4d@qq.com|小黑屋|手机版|