返回顶部
  • 发帖数964
  • 粉丝12

此人很懒,什么也没有留下

  • 最佳新人

  • 热心会员

    经常帮助其他会员答疑
  • 社区劳模

    长期对论坛的繁荣而不断努力,或发帖主题数500以上
  • 终身成就

    为论坛做出突出贡献的会员
  • 明星会员

    在论坛有很高知名度会员
  • 爆料达人

    发帖爆料达人
开启左侧

[剧情] [2021][我们的新生活][WEB-MP4/4.27GB][4K-2160P]

[复制链接]
lhb1971a 高级首粉 显示全部楼层 发表于 2021-7-26 08:34:21 |阅读模式 打印 上一主题 下一主题
f9b6cce70e9f34e393955fc5649182e3.jpeg

◎译  名 我们的重生活
◎年  代 2021
◎产  天 止您年夜陆
◎类  别 剧情
◎语  行 汉语一般话
◎上映日期 2021-07-23(止您年夜陆收集)
◎IMDb链接 https://www.imdb.com/title//
◎豆瓣链接 https://movie.douban.com/subject/35303777/
◎片  少 146分钟
◎导  演 申奥 Ao Shen (id:1404918)
      包贝我 Bei'er Bao (id:1315866)
      姚胬锩 Tingting Yao (id:1324487)
      卢正雨 Zhengyu Lu (id:1320676)
      张栾 Luan Zhang (id:1383594)
◎编  剧 申奥 Ao Shen (id:1404918)
      包贝我 Bei'er Bao (id:1315866)
      姚胬锩 Tingting Yao (id:1324487)
      卢正雨 Zhengyu Lu (id:1320676)
      张栾 Luan Zhang (id:1383594)
◎演  员 李汶翰 Wenhan Li (id:1337439)
      许君聪 Juncong Xu (id:1362516)
      王锵 Qiang Wang (id:1381513)
      杨子姗 Zishan Yang (id:1312862)
      杨逾越 Chaoyue Yang (id:1392263)
      蔡明 Ming Cai (id:1313279)
      包嗡澈 Wenjing Bao (id:1321296)
      蓝盈莹 Lyric Lan (id:1318954)
      张凯丽 Kaili Zhang (id:1030951)
      王迅 Xun Wang (id:1317139)
      张单利 Shuangli Zhang (id:1317610)
      于洋 Yang Yu (id:1314230)
      黑泽泽 Zeze Bai (id:1441799)
      杨迪 Di Yang (id:1317329)
      潘斌龙 Binlong Pan (id:1316365)
      的娆元 Chaoyuan Deng (id:1391670)
      文紧 Song Wen (id:1351426)
      黄允桐 Yuntong Huang (id:1457465)
      马汉毅 Hanyi Ma (id:1421438)
      姚张 Chi Yao (id:1409931)
      西门飘飘 (id:1422159)
      包贝我 Bei'er Bao (id:1315866)
      江易轩 Yixuan Jiang (id:1419325)
      靳阳阳 Yangyang Jin (id:1430916)
      喻恩泰 Entai Yu (id:1274271)
      衣云鹤 Yunhe Yi (id:1350228)
      罗辑 Ji Luo (id:1417084)
      范明 Ming Fan (id:1274655)
      杨安迪 Andy (id:1396302)
      蔡国庆 Guoqing Cai (id:1314747)
      程璐 Lu Cheng (id:1385699)
      盖雨嘉 Yujia Ge (id:1412013)
      韩彦专 Yanbo Han (id:1362972)
      黑敬亭 Jingting Bai (id:1342133)
      吴杂一 Chunyi Wu (id:1419814)
      赵天爱 (id:1435745)
      洪连乡 Liancheng Hong (id:1323303)
      赵华为 Huawei Zhao (id:1407058)
      丁实珍珠 Tenzin Tsundue (id:1450900)
      王超文 (id:1459886)
      刘旭 Xu Liu (id:1401842)
      赵力帜 (id:1459887)
      果晓丹 Xiaodan Guo (id:1327971)
      王韦程 Weicheng Wang (id:1335404)
      葛枯韵 (id:1459894)
      洪伟烈 Weilie Hong (id:1400705)
      周文操 Wencao Zhou (id:1381319)
      缓浚皓 Junhao Xu (id:1413582)
      傅专 Bo Fu (id:1410130)
      王建东 (id:1446567)
      端木瑞 (id:1459888)
      陈志伟 Chi Wai Chan (id:1280415)
      王迪 Di Wang (id:1459890)
      杨虹 (id:1459891)
      伏诵飑 (id:1459896)
      季佳翰 (id:1459897)
      何爽 Shuang He (id:1384718)
      黑馥瑞 Furui Bai (id:1389949)
      王希 (id:1459899)

◎标  签 温情 / 动人 / 弄笑 / 社会 / 剧情 / 2021 / 兽性 / 止您年夜陆

◎简  介
  该片由《云上音乐会》《广场恩怨录》《一起前止》《沉着沉着》《最刃旖椠落日白》五个故事单位构成,报告新时期伟大人物寻求美妙糊口的斗争故事。
##### MediaInfo ######
General
Complete name : 我们的重生活.Wo.Men.De.Xin.Sheng.Huo.2021.2160p.WEB-DL.H265.AAC-10006@SHOUFAZJ.COM.mp4
Format : MPEG-4
Format profile : Base Media
Codec ID : isom (isom/iso2/mp41)
File size : 4.27 GiB
Duration : 2 h 25 min
Overall bit rate : 4 185 kb/s
Recorded date : 2021-07-23T21:45:50.8005033+08:00
Writing application : Lavf58.32.104

Video
ID : 1
Format : HEVC
Format/Info : High Efficiency Video Coding
Format profile : Main@L5@Main
Codec ID : hev1
Codec ID/Info : High Efficiency Video Coding
Duration : 2 h 25 min
Bit rate : 3 988 kb/s
Width : 3 840 pixels
Height : 1 632 pixels
Display aspect ratio : 2.35:1
Frame rate mode : Constant
Frame rate : 24.000 FPS
Color space : YUV
Chroma subsampling : 4:2:0
Bit depth : 8 bits
Bits/(Pixel*Frame) : 0.027
Stream size : 4.07 GiB (95%)
Codec configuration box : hvcC

Audio
ID : 2
Format : AAC LC
Format/Info : Advanced Audio Codec Low Complexity
Codec ID : mp4a-40-2
Duration : 2 h 25 min
Bit rate mode : Constant
Bit rate : 192 kb/s
Channel(s) : 2 channels
Channel layout : L R
Sampling rate : 44.1 kHz
Frame rate : 43.066 FPS (1024 SPF)
Compression mode : Lossy
Stream size : 198 MiB (5%)
Default : Yes
Alternate group : 1





我们的重生活.Wo.Men.De.Xin.Sheng.Huo.2021.2160p.WEB-DL.H265.AAC-10006@SHOUFAZJ.COM.torrent (15.21 KB, 下载次数: 19)




上一篇:[2021][热带往事][WEB-MKV/10.96GB][国语音轨][4K-2160P]
下一篇:[2021][我们的新生活][WEB-MKV/27.12GB][1080P]

精彩评论3

小色色色 首发之星 显示全部楼层 发表于 2021-7-26 10:47:00
楼主辛苦了,谢谢首发之家!!
哥丶心狠痛 高级首粉 显示全部楼层 发表于 2021-7-28 12:23:51
楼主辛苦了,谢谢首发之家!!
iPhone0729 首发熟人 显示全部楼层 发表于 2021-7-28 22:33:54
楼主辛苦了,谢谢首发之家!!
您需要登录后才可以回帖 登录 | 立即注册 用百度帐号登录

本版积分规则

首发之家社区成立于2011年3月,内容涉及3C家电、数码生活智能电视,股票软件,4K,体育,软件,教育,游戏等资源指标公式论坛。
  • 官方手机版

  • 抖音号

  • 商务合作

  • Powered by Discuz! X3.4 | Copyright © 2011-2021, Tencent Cloud. | 首发之家社区
  • |网站地图 | mp4d@qq.com|小黑屋|手机版|