返回顶部
  • 发帖数1632
  • 粉丝19

此人很懒,什么也没有留下

  • 最佳新人

  • 活跃会员

    经常参与各类话题的讨论,发帖内容较有主见
  • 热心会员

    经常帮助其他会员答疑
  • 灌水之王

    经常在论坛发帖,且发帖量较大
  • 社区劳模

    长期对论坛的繁荣而不断努力,或发帖主题数500以上
  • 终身成就

    为论坛做出突出贡献的会员
  • QQ绑定

    QQ绑定会员
  • 明星会员

    在论坛有很高知名度会员
  • 沙发达人

    抢沙总数达到100
  • 光悦帅哥

    上传了自己真人秀照片就可以获得勋章哦~
  • 实名认证

    通过身份证实名认证
  • 爆料达人

    发帖爆料达人
开启左侧

[爱情] [2021][我没谈完的那场恋爱][WEB-MKV/11.01GB][国语音轨][4K-2160P]

[复制链接]
dolgm 高级首粉 显示全部楼层 发表于 2021-7-21 09:09:36 |阅读模式 打印 上一主题 下一主题
0602fddc58d64431f725fd59fb1a0596.jpeg

◎译  名 我出道完的那场爱情 / 没有道再会
◎年  代 2021
◎产  天 止您年夜陆
◎类  别 恋爱
◎语  行 汉语一般话
◎上映日期 2021-06-25(止您年夜陆)
◎IMDb链接 https://www.imdb.com/title/tt11662974/
◎豆瓣评分 4.0/10 (3177人评价)
◎豆瓣链接 https://movie.douban.com/subject/35442444/
◎片  少 97分钟
◎导  演 沾款 Yu Zhao (id:1320916)
◎编  剧 沾款 Yu Zhao (id:1320916)
      陈梦怡 (id:1457200)
      李绚彦 Xuanyan Li (id:1335262)
◎演  员 于文文 Kelly Yu (id:1342252)
      宋宁峰 Ningfeng Song (id:1313368)
      刘琦 Mulligan liu (id:1398572)
      李专 Bo Li (id:1456618)
      刘奕 Yi Liu (id:1335268)
      尹菲 Fei Yin (id:1350802)
      曹力 Li Cao (id:1274714)
      佘北北 Nannan She (id:1342105)
      殷成阳 Chengyang Yin (id:1408013)

◎标  签 恋爱 / 遗憾 / 音乐 / 胡想 / 国产 / 2021 / 渐冻症 / 怀旧

◎简  介
  本片报告了两个千好万别却一样苍茫的年青音乐人,一个是多年挨拼,奇迹毫无转机,又屡遭糊口暴击的战声歌脚珊妮,一个是身患沉痾,抛头露面等候灭亡来临的前摇滚懒恐董东,对性命感应失望的两人正在自我了冻卤相逢......他杀方案流产,他们的糊口也果相互的呈现发作改动。
别的一个时空的故事,从珊妮不测发明的一本1970年月的日志中展陈开去,冶出有下文的哀痛恋爱居然正在珊妮的勤奋下灰尘降定。跟音乐、恋爱战冉酊庸呢的各种,仁芎妮取董东当编逢愈收奇异。千丝万缕中,能否每种爱皆能着花成果? 他们可否找到持续爱那个天下的来由?
General
Unique ID : 238746956818514375092478936182162936034 (0xB39CFDC79805F7D77BAF95DA663750E2)
Complete name : Between.Us.2021.WEB-DL.4K.H265.DDP.5.1-10015@SHOUFAZJ.COM.mkv
Format : Matroska
Format version : Version 4
File size : 11.0 GiB
Duration : 1 h 37 min
Overall bit rate : 16.2 Mb/s
Encoded date : UTC 2021-07-19 09:08:22
Writing application : mkvmerge v58.0.0 ('Supper's Ready') 64-bit
Writing library : libebml v1.4.2 + libmatroska v1.6.4

Video
ID : 1
Format : HEVC
Format/Info : High Efficiency Video Coding
Format profile : Main@L5@Main
Codec ID : V_MPEGH/ISO/HEVC
Duration : 1 h 37 min
Bit rate : 15.8 Mb/s
Width : 3 840 pixels
Height : 2 160 pixels
Display aspect ratio : 16:9
Frame rate mode : Constant
Frame rate : 24.000 FPS
Color space : YUV
Chroma subsampling : 4:2:0
Bit depth : 8 bits
Bits/(Pixel*Frame) : 0.079
Stream size : 10.7 GiB (97%)
Default : Yes
Forced : No

Audio #1
ID : 2
Format : E-AC-3
Format/Info : Enhanced AC-3
Commercial name : Dolby Digital Plus
Codec ID : A_EAC3
Duration : 1 h 37 min
Bit rate mode : Constant
Bit rate : 256 kb/s
Channel(s) : 6 channels
Channel layout : L R C LFE Ls Rs
Sampling rate : 48.0 kHz
Frame rate : 31.250 FPS (1536 SPF)
Compression mode : Lossy
Stream size : 178 MiB (2%)
Language : Chinese
Service kind : Complete Main
Default : Yes
Forced : No

Audio #2
ID : 3
Format : AAC LC
Format/Info : Advanced Audio Codec Low Complexity
Codec ID : A_AAC-2
Duration : 1 h 37 min
Bit rate : 192 kb/s
Channel(s) : 2 channels
Channel layout : L R
Sampling rate : 44.1 kHz
Frame rate : 43.066 FPS (1024 SPF)
Compression mode : Lossy
Stream size : 132 MiB (1%)
Language : Chinese
Default : No
Forced : No



旅客,假如您要检察本帖躲藏内容请复兴




上一篇:[2014][暴疯语][WEB-MP4/8.35GB][4K-2160P]
下一篇:[2021][有一点动心][WEB-MKV/10.91GB][国语音轨][4K-2160P]

精彩评论26

haibo1hao 首发之星 显示全部楼层 发表于 2021-7-21 09:17:22
楼主辛苦了,谢谢首发之家!!
xinmo2003 初来首发 显示全部楼层 发表于 2021-7-21 09:39:44
RE: [2021][有一点动心][WEB-MKV/10.91GB][国语音轨][4K-2160P] [[url=]修改[/url]]
adrianyj 首发之星 显示全部楼层 发表于 2021-7-21 10:20:28
gdgdfgdgdf
哥丶心狠痛 高级首粉 显示全部楼层 发表于 2021-7-21 10:21:04
楼主辛苦了,谢谢首发之家!!
阿木_QcCEe 首发熟人 显示全部楼层 发表于 2021-7-21 12:29:43
楼主辛苦了,谢谢首发之家!!
jonny.bf 初来首发 显示全部楼层 发表于 2021-7-21 12:30:21
楼主辛苦了,谢谢首发之家!!
笑看风云77 首发之星 显示全部楼层 发表于 2021-7-21 14:50:42
下载欣赏欣赏国产片爱情片电影看看!
一个人看电影 高级首粉 显示全部楼层 发表于 2021-7-21 16:08:24
多谢楼主分享
iyo五花肉 初来首发 显示全部楼层 发表于 2021-7-21 16:45:24
学习一下!学习一下!学习一下!学习一下!学习一下!学习一下!学习一下!学习一下!学习一下!学习一下!学习一下!学习一下!学习一下!学习一下!学习一下!学习一下!学习一下!学习一下!学习一下!学习一下!学习一下!学习一下!学习一下!学习一下!
您需要登录后才可以回帖 登录 | 立即注册 用百度帐号登录

本版积分规则

首发之家社区成立于2011年3月,内容涉及3C家电、数码生活智能电视,股票软件,4K,体育,软件,教育,游戏等资源指标公式论坛。
  • 官方手机版

  • 抖音号

  • 商务合作

  • Powered by Discuz! X3.4 | Copyright © 2011-2021, Tencent Cloud. | 首发之家社区
  • |网站地图 | mp4d@qq.com|小黑屋|手机版|