返回顶部
  • 发帖数3009
  • 粉丝35

此人很懒,什么也没有留下

  • 最佳新人

  • 活跃会员

    经常参与各类话题的讨论,发帖内容较有主见
  • 热心会员

    经常帮助其他会员答疑
  • 灌水之王

    经常在论坛发帖,且发帖量较大
  • 社区劳模

    长期对论坛的繁荣而不断努力,或发帖主题数500以上
  • 终身成就

    为论坛做出突出贡献的会员
  • 明星会员

    在论坛有很高知名度会员
  • 爆料达人

    发帖爆料达人
开启左侧

[喜剧] [2021][超越][WEB-MP4/9.48GB][国语音轨][4K-2160P]

[复制链接]
shizhijie 狂热首粉 显示全部楼层 发表于 2021-7-17 09:38:27 |阅读模式 打印 上一主题 下一主题
487652d6aa8794be39aa956fd7723355.jpeg

◎译  名 逾越 / 极速逾越 / Never Stop
◎年  代 2021
◎产  天 止您年夜陆
◎类  别 剧情 / 笑剧 / 活动
◎语  行 汉语一般话
◎上映日期 2021-06-12(止您年夜陆)
◎IMDb链接 https://www.imdb.com/title/tt14778138/
◎豆瓣评分 5.2/10 (13190人评价)
◎豆瓣链接 https://movie.douban.com/subject/34917447/
◎片  少 98分钟
◎导  演 韩专文 Bowen Han (id:1378773)
◎编  剧 甲子复 Zifu Jia (id:1455382)
◎演  员 郑恺 Kai Zheng (id:1275564)
      李昀钝 Lin (id:1390859)
      曹炳琨 Bingkun Cao (id:1313383)
      张蓝心 Lanxin Zhang (id:1324267)
      张榕容 Sandrine Pinna (id:1226703)
      李朝 Chen Li (id:1274252)
      金靖 Jing Jin (id:1376274)
      李宁 Ning Li (id:1052811)
      田雨 Yu Tian (id:1316331)
      范志毅 Zhiyi Fan (id:1319964)
      郑恺 Kai Zheng (id:1275564)
      王中军 Zhongjun Wang (id:1276036)
      黄永峰 Yongfeng Huang (id:1455383)
      黑雪 Xue Bai (id:1455384)
      李捷 Jie Li (id:1403835)
      张怯 Yong Zhang (id:1417892)
      丁颂易 Songyi Ding (id:1455385)
      王中磊 Zhonglei Wang (id:1276037)
      张雄师 Dajun Zhang (id:1412558)
      孙赫 He Sun (id:1455386)
      卢希 Xi Lu (id:1455387)
      葛俑) Qianwen Ge (id:1455388)
      程倩 Qian Cheng (id:1455389)
      邓志玲 Zhiling Deng (id:1455390)
      田鸿硕 Hongshuo Tian (id:1455391)
      周欣 Xin Zhou (id:1455392)
      王翎霁 Lingji Wang (id:1455395)
      耿磊 Lei Geng (id:1455396)
      董冬冬 Dongdong Dong (id:1348747)
      刘帆 Fan Liu (id:1455397)
      王媛 Yuan Wang (id:1455399)
      王竞 Jing Wang (id:1409414)
      于晓溪 Xiaoxi Yu (id:1455398)
      吴佰嶬 Baiyi Wu (id:1455401)
      李牧衡 Muheng Li (id:1455402)
      郑希 Xi Zheng (id:1384856)
      郭雄伟 Hongwei Guo (id:1455400)
      王冲 Chong Wang (id:1388363)
      宋鹏 Peng Song (id:1455404)
      张壹叫 Yiming Zhang (id:1455405)
      孙景岩 Jingyan Sun (id:1371119)
      袁国强 Guoqiang Yuan (id:1455406)
      许艺军 Yijun Xu (id:1455407)
      李稳能 Wenneng Li (id:1455408)

◎标  签 励志 / 活动 / 体育 / 体育死 / 跑步 / 长跑 / 田径 / 止您年夜陆

◎简  介
  百米冠军吴加翼(李昀钝 饰)为解开没法打败老飞人郝逾越(郑恺 饰)的心结而返城,不意郝逾越早已迷恋,躲避最爱的跑步奇迹,更费尽心血操纵吴加翼投机。师兄弟两鹊滥比赛从回想中的跑讲延长进理想糊口,历经误解战抵触,终极冰释前嫌并相互治愈······

◎获奖状况 (共1项)
  第24届上海国际影戏节 (2021)
  影戏频讲传媒年夜奖 最受传媒存眷新人淖磔员
   └──李昀钝 (id:1390859)
General
Unique ID : 222974290661391285899337758168818877159 (0xA7BF494C5AC27B6EFC3FF2EDF3BB82E7)
Complete name : 逾越.Never.Stop.2021.2160p.WEB-DL.H264.DDP5.1-10006@SHOUFAZJ.COM.mp4
Format : Matroska
Format version : Version 4
File size : 9.48 GiB
Duration : 1 h 37 min
Overall bit rate : 13.9 Mb/s
Encoded date : UTC 2021-07-16 03:03:40
Writing application : mkvmerge v58.0.0 ('Supper's Ready') 64-bit
Writing library : libebml v1.4.2 + libmatroska v1.6.4
FileExtension_Invalid : mkv mk3d mka mks

Video
ID : 1
Format : HEVC
Format/Info : High Efficiency Video Coding
Format profile : Main@L5@Main
Codec ID : V_MPEGH/ISO/HEVC
Duration : 1 h 37 min
Bit rate : 13.5 Mb/s
Width : 3 840 pixels
Height : 1 776 pixels
Display aspect ratio : 2.2:1
Frame rate mode : Constant
Frame rate : 24.000 FPS
Color space : YUV
Chroma subsampling : 4:2:0
Bit depth : 8 bits
Bits/(Pixel*Frame) : 0.082
Stream size : 9.17 GiB (97%)
Default : Yes
Forced : No

Audio #1
ID : 2
Format : E-AC-3
Format/Info : Enhanced AC-3
Commercial name : Dolby Digital Plus
Codec ID : A_EAC3
Duration : 1 h 37 min
Bit rate mode : Constant
Bit rate : 256 kb/s
Channel(s) : 6 channels
Channel layout : L R C LFE Ls Rs
Sampling rate : 48.0 kHz
Frame rate : 31.250 FPS (1536 SPF)
Compression mode : Lossy
Stream size : 178 MiB (2%)
Language : Chinese
Service kind : Complete Main
Default : Yes
Forced : No

Audio #2
ID : 3
Format : AAC LC
Format/Info : Advanced Audio Codec Low Complexity
Codec ID : A_AAC-2
Duration : 1 h 37 min
Bit rate : 192 kb/s
Channel(s) : 2 channels
Channel layout : L R
Sampling rate : 44.1 kHz
Frame rate : 43.066 FPS (1024 SPF)
Compression mode : Lossy
Stream size : 132 MiB (1%)
Language : Chinese
Default : Yes
Forced : No


旅客,假如您要检察本帖躲藏内容请复兴




上一篇:.[动作,战争] [4K电影]2014.《宙斯之子》2160p.WEB.H265-PETRiFiED
下一篇:[2021][空中大灌篮:新传奇][WEB-MKV/15.93GB][4K-2160P]

精彩评论28

qq882011 首发熟人 显示全部楼层 发表于 2021-7-17 10:26:37
楼主辛苦了,谢谢首发之家!!
qq882011 首发熟人 显示全部楼层 发表于 2021-7-17 10:26:52
楼主辛苦了,谢谢首发之家!!
tsoutewen 捐助会员 显示全部楼层 发表于 2021-7-17 11:26:24
感谢感动楼主分享!
fishlab 首发之星 显示全部楼层 发表于 2021-7-17 12:16:19
RE: [2021][超越][WEB-MP4/9.48GB][国语音轨][4K-2160P] [修改]


skycx521 高级首粉 显示全部楼层 发表于 2021-7-17 13:40:31
楼主辛苦了,谢谢首发之家!!
奔跑的_XGryU 首发之星 显示全部楼层 发表于 2021-7-17 17:27:54
RE: [2021][超越][WEB-MKV/19.29GB][1080P] [[url=]修[/url]
笑看风云77 首发之星 显示全部楼层 发表于 2021-7-17 18:34:47
下载欣赏欣赏!国产片!
wingyangyyy 首发之星 显示全部楼层 发表于 2021-7-17 19:01:27
楼主辛苦了,谢谢首发之家!!
您需要登录后才可以回帖 登录 | 立即注册 用百度帐号登录

本版积分规则

首发之家社区成立于2011年3月,内容涉及3C家电、数码生活智能电视,股票软件,4K,体育,软件,教育,游戏等资源指标公式论坛。
  • 官方手机版

  • 抖音号

  • 商务合作

  • Powered by Discuz! X3.4 | Copyright © 2011-2021, Tencent Cloud. | 首发之家社区
  • |网站地图 | mp4d@qq.com|小黑屋|手机版|