返回顶部
  • 发帖数1353
  • 粉丝13

此人很懒,什么也没有留下

  • 最佳新人

  • 活跃会员

    经常参与各类话题的讨论,发帖内容较有主见
  • 热心会员

    经常帮助其他会员答疑
  • 社区劳模

    长期对论坛的繁荣而不断努力,或发帖主题数500以上
  • 终身成就

    为论坛做出突出贡献的会员
  • 明星会员

    在论坛有很高知名度会员
  • 爆料达人

    发帖爆料达人
开启左侧

[记录] 火花兄弟2021.2160p.WEB-DL.x265.10bit.SDR.DD5.1-20.69GB

[复制链接]
MEN1984 捐助会员 显示全部楼层 发表于 2021-7-13 14:18:34 |阅读模式 打印 上一主题 下一主题

80c964ce891ef.png
◎译  名 水花兄弟
◎片  名 The Sparks Brothers
◎年  代 2021
◎产  天 英国
◎类  别 纪录片 / 音乐
◎语  行 英语
◎上映日期 2021-01-30(圣丹斯电影节) / 2021-07-30(英国)
◎豆瓣评分 /10 from 0 users
◎豆瓣链接 https://movie.douban.com/subject/35155764/
◎片  少 135分钟
◎导  演 埃德减·好特 Edgar Wright
◎主  演 罗恩·梅我 Ron Mael
      罗素·梅我 Russell Mael
      痹铀 Beck
      简·威德林 Jane Wiedlin
      Tony Visconti Tony Visconti
      麦克·梅我斯 Mike Myers
      弗莱德·阿米森 Fred Armisen
      乔治·莫罗德 Giorgio Moroder
      阿我·杨科维克 'Weird Al' Yankovic
      Muff Winwood Muff Winwood
      Nick Rhodes Nick Rhodes
      史蒂妇·琼斯 Steve Jones
      John Taylor John Taylor
      托德·勒媛格伦 Todd Rundgren
      弗利 Flea
      詹森·舒瓦兹曼 Jason Schwartzman
      乔纳森·罗斯 Jonathan Ross
      埃米·开我曼-帕推迪诺 Amy Sherman-Palladino
      丹僧我·帕推迪诺 Daniel Palladino
      僧我·盖曼 Neil Gaiman
      斯蒂芬·莫里斯 Stephen Morris
      Gillian Gilbert Gillian Gilbert
      帕顿·奥斯瓦我特 Patton Oswalt
      伯挠蘼·巴勒特 Bernard Butler
      斯空闭·奥克我曼 Scott Aukerman
      Chris Difford Chris Difford
      Martyn Ware Martyn Ware
      Alex Kapranos Alex Kapranos
      Paul Morley Paul Morley
      帕梅推·德斯·巴雷斯 Pamela Des Barres
      Roddy Bottum Roddy Bottum
      杰克·安东诺妇 Jack Antonoff
      Vince Clarke Vince Clarke
      安得埭贝我 Andy Bell
      比约克 Bj?rk
      马克·减蒂斯 Mark Gatiss
      Nick Heyward Nick Heyward
      瑟斯顿·摩我 Thurston Moore
      亚当·布克斯顿 Adam Buxton
      埃德减·好特 Edgar Wright
      西受·佩凶 Simon Pegg
      僧克·弗罗斯特 Nick Frost

◎标  签 纪录片 | 英国 | 2021 | 音乐 | 好国 | 圣丹斯电影节 | 电影取音乐 | Music

◎简  介

  Sparks乐队由推塞我·梅我、罗恩·梅我两兄弟于1972年直立。该片纪录了Sparks乐队伎喈年的职业生涯战影响力。
Video
ID : 1
Format : HEVC
Format/Info : High Efficiency Video Coding
Format profile : Main 10@L5@High
Codec ID : V_MPEGH/ISO/HEVC
Duration : 2 h 21 min
Bit rate : 20.6 Mb/s
Width : 3 836 pixels
Height : 2 072 pixels
Display aspect ratio : 1.85:1
Frame rate mode : Constant
Frame rate : 23.976 (24000/1001/189150) FPS
Color space : YUV
Chroma subsampling : 4:2:0
Bit depth : 10 bits
Bits/(Pixel*Frame) : 0.108
Stream size : 20.3 GiB (98%)
Language : English
Default : Yes
Forced : No
Color range : Limited
Color primaries : BT.709
Transfer characteristics : BT.709
Matrix coefficients : BT.709

Audio
ID : 2
Format : AC-3
Format/Info : Audio Coding 3
Commercial name : Dolby Digital
Codec ID : A_AC3
Duration : 2 h 21 min
Bit rate mode : Constant
Bit rate : 384 kb/s
Channel(s) : 6 channels
Channel layout : L R C LFE Ls Rs
Sampling rate : 48.0 kHz
Frame rate : 31.250 FPS (1536 SPF)
Compression mode : Lossy
Stream size : 388 MiB (2%)
Language : English
Service kind : Complete Main
Default : Yes
Forced : No

Text #1
ID : 3
Format : UTF-8
Codec ID : S_TEXT/UTF8
Codec ID/Info : UTF-8 Plain Text
Duration : 2 h 20 min
Bit rate : 123 b/s
Count of elements : 2851
Stream size : 127 KiB (0%)
Title : (SDH)
Language : English
Default : No
Forced : No

Text #2
ID : 4
Format : UTF-8
Codec ID : S_TEXT/UTF8
Codec ID/Info : UTF-8 Plain Text
Duration : 2 h 19 min
Bit rate : 99 b/s
Count of elements : 2143
Stream size : 102 KiB (0%)
Language : French
Default : No
Forced : No

Text #3
ID : 5
Format : UTF-8
Codec ID : S_TEXT/UTF8
Codec ID/Info : UTF-8 Plain Text
Duration : 2 h 19 min
Bit rate : 95 b/s
Count of elements : 1982
Stream size : 98.1 KiB (0%)
Language : Spanish
Default : No
Forced : No





旅客,假如您要检察本帖躲藏内容请复兴




上一篇:美国精神病人[双语字幕]2000.2160p.HDR.UHD.BluRay.DTS-HD.MA.5.1.x265-10.6 GiB
下一篇:一起在一起.2021.2160p.WEB-DL.x265.10bit.SDR.DD5.1-13.42GB

精彩评论2

哥丶心狠痛 高级首粉 显示全部楼层 发表于 2021-7-14 17:27:37
楼主辛苦了,谢谢首发之家!!
您需要登录后才可以回帖 登录 | 立即注册 用百度帐号登录

本版积分规则

首发之家社区成立于2011年3月,内容涉及3C家电、数码生活智能电视,股票软件,4K,体育,软件,教育,游戏等资源指标公式论坛。
  • 官方手机版

  • 抖音号

  • 商务合作

  • Powered by Discuz! X3.4 | Copyright © 2011-2021, Tencent Cloud. | 首发之家社区
  • |网站地图 | mp4d@qq.com|小黑屋|手机版|