返回顶部
  • 发帖数1353
  • 粉丝13

此人很懒,什么也没有留下

  • 最佳新人

  • 活跃会员

    经常参与各类话题的讨论,发帖内容较有主见
  • 热心会员

    经常帮助其他会员答疑
  • 社区劳模

    长期对论坛的繁荣而不断努力,或发帖主题数500以上
  • 终身成就

    为论坛做出突出贡献的会员
  • 明星会员

    在论坛有很高知名度会员
  • 爆料达人

    发帖爆料达人
开启左侧

[喜剧] 伴娘/伴娘也疯狂2011.THEATRICAL.2160p.WEB-DL.x265.8bit.SDR.DTS-HD.MA.5.1- 16.49GB

[复制链接]
MEN1984 捐助会员 显示全部楼层 发表于 2021-7-13 14:15:51 |阅读模式 打印 上一主题 下一主题

7faa2fcb5b8e7.png
◎译  名 陪娘/陪娘也跋扈狂/陪娘团/陪娘我最年夜(台)/最爆陪娘团(港)/闺蜜争辱
◎片  名 Bridesmaids
◎年  代 2011
◎产  天 好国
◎类  别 笑剧
◎语  行 英语
◎上映日期 2011-05-13(好国)
◎豆瓣评分 6.9/10 from 59353 users
◎豆瓣链接 https://movie.douban.com/subject/3880545/
◎片  少 125分钟
◎导  演 保罗·费格 Paul Feig
◎编  剧 克里斯汀·韦格 Kristen Wiig / 安妮·玛莫罗 Annie Mumolo
◎主  演 克里斯汀·韦格 Kristen Wiig
      玛娅·鲁讲妇 Maya Rudolph
      罗丝·伯恩 Rose Byrne
      克里斯·奥多德 Chris O'Dowd
      梅丽莎·麦卡西 Melissa McCarthy
      艾丽·坎伯我 Ellie Kemper
      凶我·克琅霎格 Jill Clayburgh
      泰瑞·克鲁斯 Terry Crews
      汤姆·易 Tom Yi
      埃兰僧·考 Elaine Kao
      迈克我·希区柯克 Michael Hitchcock
      乔·努内斯 Joe Nunez
      蕾蓓我·威我森 Rebel Wilson
      马特·卢卡斯 Matt Lucas
      温得埭麦丽登·康薇 Wendi McLendon-Covey
      格雷格·图库雷斯库 Greg Tuculescu
      史蒂妇·班诺斯 Steve Bannos
      乔恩·哈姆 Jon Hamm
      黛安·韦斯特 Dianne Wiest
      安德鲁·巴肯 Andrew Buchan
      马特·本内特 Matt Bennett
      凶莉恩·贝我 Jillian Bell
      米娅·罗斯·弗兰普顿 Mia Rose Frampton
      约翰僧·扬·专施 Johnny Yong Bosch
      布莱·减列特·罗森索 Blake Garrett Rosenthal
      安妮·玛莫罗 Annie Mumolo
      齐挠毪菲利浦斯 Chynna Phillips
      布莱恩·佩索斯 Brian Petsos
       Patrick Casa
      杰西卡·圣克莱我 Jessica St. Clair
      达挠毪鲍威我 Dana Powell
      欧文·丹僧我斯 Owen Daniels

◎标  签 笑剧 | 好国 | 爱情 | 2011 | 交情 | 弄笑 | 女性 | KristenWiig

◎简  介

  鹊澜中年的安妮(克里斯汀·韦格 Kristen Wiig 饰)照旧一事无成,浑噩度日。交往已暂的男朋友只是把她当作恋人,并没有取她组建家庭的筹算。此时,安妮的石友莉莉安(玛娅·鲁讲妇 Maya Rudolph 饰)俦蚌要结婚了,并约请了包罗她正在内的几名女性石友构成陪娘团。陪 娘头十中的海伦(萝丝·拜恩 Rose Byrne 饰)家底深厚且中间遇源,倾力为莉莉安挨制奢华订婚礼。安妮没有谦海伦主导订婚礼筹办,到处取其逆来顺受,试图背莉莉安昭告她深厚的情意,但每次努力皆令众人没有悦,反而引致莉莉安的没有谦。
  
  同时,安妮也开始面对冉酊中的诸多成绩。交警罗兹(克里斯·奥多德 Chris O'Dow 饰)的出现仿佛为安妮翻开了另外一扇窗。安妮可否摆脱那些窘境,步进生活的┞俘轨呢?

◎获奖状况

  第84届奥斯卡金像奖 ?(2012)
  最好女副角(提名) 梅丽莎·麦卡西
  最好初创剧本(提名) 克里斯汀·韦格?/?安妮·玛莫罗
  
  第69届金球奖 ?(2012)
  电影类最好音乐/笑剧片(提名)
  电影类音乐/笑剧片最好女配角(提名) 克里斯汀·韦格
  
  第21届MTV电影奖 ?(2012)
  MTV电影奖年度电影(提名)
  MTV电影奖最好笑剧演出 梅丽莎·麦卡西
  MTV电影奖最好笑剧演出(提名) 克里斯汀·韦格
  MTV电影奖最好女演员(提名) 克里斯汀·韦格
  MTV电影奖突破演出奖(提名) 梅丽莎·麦卡西
  MTV电影奖银幕最渣角色(提名) 乔恩·哈姆
  MTV电影奖最好卡司威望(提名)
  MTV电影奖最虐心的演出 罗丝·伯恩?/?梅丽莎·麦卡西?/?温得埭麦丽登·康薇?/?艾丽·坎伯我?/?克里斯汀·韦格?/?玛娅·鲁讲妇
  
  第17届好国批评家挑选电影奖 ?(2012)
  最好女副角(提名) 梅丽莎·麦卡西
  最好瓤(提名)
  最好笑剧片
  
  第12届好国电影教会奖 ?(2011)
  年度佳片
  
  第10届华衰顿影评人协会奖 ?(2011)
  最好女副角(提名) 梅丽莎·麦卡西
  最好初创剧本(提名) 克里斯汀·韦格?/?安妮·玛莫罗
  最好瓤
  
  第32届波士顿影评人协会奖 ?(2011)
  最好女副角 梅丽莎·麦卡西
  
  第24届芝减哥影评人协会奖 ?(2011)
  最好女副角(提名) 梅丽莎·麦卡西
  
  第11届凤荒媲影评人协会奖 ?(2011)
  最好瓤演出(提名)
  
  第13届好国青少年挑选奖 ?(2011)
  最好笑剧片(提名)
  最好笑剧片女演员(提名) 玛娅·鲁讲妇?/?克里斯汀·韦格
  最抢戏电影女星(提名) 梅丽莎·麦卡西
  ChoiceMovie:HissyFit(提名) 克里斯汀·韦格
  
  第2届豆瓣电影鑫像奖 ?(2012)
  鑫豆单位最好女演员(中语)(提名) 克里斯汀·韦格
Video
ID : 1
Format : HEVC
Format/Info : High Efficiency Video Coding
Format profile : Main@L5@High
Codec ID : V_MPEGH/ISO/HEVC
Duration : 2 h 4 min
Bit rate : 14.9 Mb/s
Width : 3 840 pixels
Height : 2 160 pixels
Display aspect ratio : 16:9
Frame rate mode : Constant
Frame rate : 23.976 (24000/1001/189150) FPS
Color space : YUV
Chroma subsampling : 4:2:0
Bit depth : 8 bits
Bits/(Pixel*Frame) : 0.075
Stream size : 13.0 GiB (79%)
Default : Yes
Forced : No
Color range : Limited
Color primaries : BT.709
Transfer characteristics : BT.709
Matrix coefficients : BT.709

Audio #1
ID : 2
Format : DTS XLL
Format/Info : Digital Theater Systems
Commercial name : DTS-HD Master Audio
Codec ID : A_DTS
Duration : 2 h 4 min
Bit rate mode : Variable
Bit rate : 3 602 kb/s
Channel(s) : 6 channels
Channel layout : C L R Ls Rs LFE
Sampling rate : 48.0 kHz
Frame rate : 93.750 FPS (512 SPF)
Bit depth : 24 bits
Compression mode : Lossless
Stream size : 3.14 GiB (19%)
Title : DTS-HD MA 5.1
Language : English
Default : Yes
Forced : No

Audio #2
ID : 3
Format : AAC LC
Format/Info : Advanced Audio Codec Low Complexity
Codec ID : A_AAC-2
Duration : 2 h 4 min
Bit rate : 445 kb/s
Channel(s) : 6 channels
Channel layout : C L R Ls Rs LFE
Sampling rate : 48.0 kHz
Frame rate : 46.875 FPS (1024 SPF)
Compression mode : Lossy
Stream size : 398 MiB (2%)
Title : AAC 5.1
Language : English
Default : No
Forced : No

Text
ID : 4
Format : UTF-8
Codec ID : S_TEXT/UTF8
Codec ID/Info : UTF-8 Plain Text
Duration : 2 h 4 min
Bit rate : 97 b/s
Count of elements : 2334
Stream size : 88.7 KiB (0%)
Title : English
Language : English
Default : Yes
Forced : No

Menu
00:00:00.000 : Chapter 01
00:08:36.349 : Chapter 02
00:12:12.565 : Chapter 03
00:16:23.941 : Chapter 04
00:21:39.756 : Chapter 05
00:27:17.552 : Chapter 06
00:33:10.530 : Chapter 07
00:40:34.265 : Chapter 08
00:47:57.749 : Chapter 09
00:54:21.049 : Chapter 10
01:02:01.801 : Chapter 11
01:06:44.000 : Chapter 12
01:12:32.973 : Chapter 13
01:17:04.411 : Chapter 14
01:21:40.353 : Chapter 15
01:28:11.327 : Chapter 16
01:33:46.996 : Chapter 17
01:40:36.864 : Chapter 18
01:48:14.362 : Chapter 19
01:55:42.894 : Chapter 20




旅客,假如您要检察本帖躲藏内容请复兴




上一篇:[2021]阳光姐妹淘][WEB-MKV/5GB][国语中字][2160P]
下一篇:老雷斯的故事/绿野仙生.2012.2160p.WEB-DL.x265.8bit.SDR.DTS-HD.MA.5.1-11.00GB

精彩评论13

小朋友你好 初来首发 显示全部楼层 发表于 2021-7-13 15:47:40
楼主辛苦了,谢谢首发之家!!
a000000000 高级首粉 显示全部楼层 发表于 2021-7-13 15:59:21
楼主辛苦了,谢谢首发之家!!
nana604638383 首发之星 显示全部楼层 发表于 2021-7-13 16:51:14
首发之家不能没有像楼主这样的人才!
jiaduobao007 首发熟人 显示全部楼层 发表于 2021-7-13 19:11:31
首发之家不能没有像楼主这样的人才!
zzhjyg 捐助会员 显示全部楼层 发表于 2021-7-13 19:34:40
88888888888888888888
天下877 首发之星 显示全部楼层 发表于 2021-7-13 19:35:21
楼主辛苦了,谢谢首发之家!!
休闲居士 铁杆首粉 显示全部楼层 发表于 2021-7-13 23:42:43
楼主辛苦了,谢谢首发之家!!
mfz838 首发之星 显示全部楼层 发表于 2021-7-14 08:35:16
坎坎坷坷扩扩扩扩扩扩扩扩扩扩扩扩扩扩扩扩扩扩扩扩扩扩扩扩扩扩扩扩扩扩扩扩扩扩
哥丶心狠痛 高级首粉 显示全部楼层 发表于 2021-7-14 17:28:44
楼主辛苦了,谢谢首发之家!!
您需要登录后才可以回帖 登录 | 立即注册 用百度帐号登录

本版积分规则

首发之家社区成立于2011年3月,内容涉及3C家电、数码生活智能电视,股票软件,4K,体育,软件,教育,游戏等资源指标公式论坛。
  • 官方手机版

  • 抖音号

  • 商务合作

  • Powered by Discuz! X3.4 | Copyright © 2011-2021, Tencent Cloud. | 首发之家社区
  • |网站地图 | mp4d@qq.com|小黑屋|手机版|