返回顶部
  • 发帖数1353
  • 粉丝13

此人很懒,什么也没有留下

  • 最佳新人

  • 活跃会员

    经常参与各类话题的讨论,发帖内容较有主见
  • 热心会员

    经常帮助其他会员答疑
  • 社区劳模

    长期对论坛的繁荣而不断努力,或发帖主题数500以上
  • 终身成就

    为论坛做出突出贡献的会员
  • 明星会员

    在论坛有很高知名度会员
  • 爆料达人

    发帖爆料达人
开启左侧

[喜剧] 歪小子斯科特对抗全世界.2010.2160p.BluRay.x264.8bit.SDR.DTS-HD.MA- 35.86GB

[复制链接]
MEN1984 捐助会员 显示全部楼层 发表于 2021-7-11 11:01:00 |阅读模式 打印 上一主题 下一主题
854943e8da3de.png

◎译  名 正小子斯空闭对抗全球/斯空闭对抗全球/正小子斯空闭(台)/爆女年夜屠杀(港)
◎片  名 Scott Pilgrim vs. the World
◎年  代 2010
◎产  天 好国,英国,减拿年夜
◎类  别 笑剧 / 行动 / 爱情 / 奇异
◎语  行 英语
◎上映日期 2010-08-13(好国)
◎豆瓣评分 7.1/10 from 34731 users
◎豆瓣链接 https://movie.douban.com/subject/2158222/
◎片  少 112分钟
◎导  演 埃德减·好特 Edgar Wright
◎编  剧 迈克我·巴考我 Michael Bacall / 埃德减·好特 Edgar Wright
◎主  演 迈克我·塞推 Michael Cera
      玛丽·伊丽莎黑·温斯特德 Mary Elizabeth Winstead
      基北·卡我金 Kieran Culkin
      克里斯·埃文斯 Chris Evans
      安挠毪肯德里克 Anna Kendrick
      布兰登·罗斯 Brandon Routh
      艾丽森·皮我 Alison Pill
      詹森·舒瓦兹曼 Jason Schwartzman
      艾伦·王 Ellen Wong
      萨特亚·布哈巴哈 Satya Bhabha
      马克·韦伯 Mark Webber
      布丽·推我森 Brie Larson
      克我·戚伊特 Kerr Hewitt
      英格里德·哈斯 Ingrid Haas

◎标  签 好国 | 笑剧 | 芳华 | 2010 | 奇异 | 爱情 | 行动 | 漫绘改编

◎简  介

  胡念成为歌脚的摇滚青年斯空闭(迈克我·塞推 Michael Cera 饰)有一收乐队寂死党战冶不堪回顾转头回想的爱情,他深爱的前女用俨维·亚当斯(布丽·推我森 Brie Larson 饰)被本人崇敬的同业横刀夺爱。正当悲不雅的他陷进两纛深的感情阴影中没法自拔时,下中死少女奈祸斯·周(爱伦·王 Ellen Wong 饰)战梦中情人拉受挠毪花(玛丽·伊丽莎黑·文斯蒂德 Mary Elizabeth Winstead 饰)同时出现正在了他的眼前.斯空闭对花一睹钟情,但令他出有念到的是,他必须先挨败她的7个罪恶前男朋友,才气得到花的芳心。而此时,安维亚当斯的返来战奈祸斯·周的治进又为那看似弗成能完秤弈使命增长了易队耄
  
  影片操纵了例如配角三条命、挨BOSS升级失落金币、败北重新读档等典范的屠杀游戏桥段,使得局部电影布满着浓浓的漫绘气势派头,游戏拷仓喜好者尽对能从中找到共叫,没有容错过。

◎获奖状况

  第15届圣天逊徵影评人协会奖 ?(2010)
  最好改编剧本(提名) 迈克我·巴考我?/?埃德减·好特
  最好剪辑 保罗·马偶利斯?/?乔纳森·阿莫斯
  
  第13届好国青少年挑选奖 ?(2011)
  最好行动片(提名)
  最好行动片淖磔员(提名) 迈克我·塞推
  最好行动片女演员(提名) 玛丽·伊丽莎黑·温斯特德
Video
ID : 1
Format : AVC
Format/Info : Advanced Video Codec
Format profile : High@L5.1
Format settings : CABAC / 5 Ref Frames
Format settings, CABAC : Yes
Format settings, Reference frames : 5 frames
Codec ID : V_MPEG4/ISO/AVC
Duration : 1 h 52 min
Bit rate : 37.9 Mb/s
Width : 3 840 pixels
Height : 2 078 pixels
Display aspect ratio : 1.85:1
Frame rate mode : Constant
Frame rate : 23.976 (24000/1001/189150) FPS
Color space : YUV
Chroma subsampling : 4:2:0
Bit depth : 8 bits
Scan type : Progressive
Bits/(Pixel*Frame) : 0.198
Stream size : 29.7 GiB (83%)
Writing library : x264 core 157 r2935 545de2f
Encoding settings : cabac=1 / ref=5 / deblock=1:-1:-1 / analyse=0x3:0x113 / me=umh / subme=10 / psy=1 / psy_rd=1.00:0.15 / mixed_ref=1 / me_range=48 / chroma_me=1 / trellis=2 / 8x8dct=1 / cqm=0 / deadzone=21,11 / fast_pskip=1 / chroma_qp_offset=-3 / threads=48 / lookahead_threads=4 / sliced_threads=0 / nr=0 / decimate=0 / interlaced=0 / bluray_compat=0 / constrained_intra=0 / bframes=3 / b_pyramid=2 / b_adapt=2 / b_bias=0 / direct=3 / weightb=1 / open_gop=0 / weightp=2 / keyint=250 / keyint_min=23 / scenecut=40 / intra_refresh=0 / rc_lookahead=50 / rc=crf / mbtree=1 / crf=20.0 / qcomp=0.60 / qpmin=0 / qpmax=69 / qpstep=4 / ip_ratio=1.40 / aq=1:1.00
Default : Yes
Forced : No

Audio #1
ID : 2
ID in the original source medium : 4352 (0x1100)
Format : MLP FBA 16-ch
Format/Info : Meridian Lossless Packing FBA with 16-channel presentation
Commercial name : Dolby TrueHD with Dolby Atmos
Codec ID : A_TRUEHD
Duration : 1 h 52 min
Bit rate mode : Variable
Bit rate : 3 110 kb/s
Maximum bit rate : 5 526 kb/s
Channel(s) : 8 channels
Channel layout : L R C LFE Ls Rs Lb Rb
Sampling rate : 48.0 kHz
Frame rate : 1 200.000 FPS (40 SPF)
Bit depth : 24 bits
Compression mode : Lossless
Stream size : 2.44 GiB (7%)
Title : TrueHD 7.1 Atmos
Language : English
Default : Yes
Forced : No
Original source medium : Blu-ray
Number of dynamic objects : 11
Bed channel count : 1 channel
Bed channel configuration : LFE

Audio #2
ID : 3
Format : DTS XLL
Format/Info : Digital Theater Systems
Commercial name : DTS-HD Master Audio
Codec ID : A_DTS
Duration : 1 h 52 min
Bit rate mode : Variable
Bit rate : 3 895 kb/s
Channel(s) : 8 channels
Channel layout : C L R LFE Lb Rb Lss Rss
Sampling rate : 48.0 kHz
Frame rate : 93.750 FPS (512 SPF)
Bit depth : 24 bits
Compression mode : Lossless
Stream size : 3.05 GiB (9%)
Title : DTS-HD MA 7.1
Language : English
Default : No
Forced : No

Audio #3
ID : 4
ID in the original source medium : 4352 (0x1100)
Format : AC-3
Format/Info : Audio Coding 3
Commercial name : Dolby Digital
Codec ID : A_AC3
Duration : 1 h 52 min
Bit rate mode : Constant
Bit rate : 448 kb/s
Channel(s) : 6 channels
Channel layout : L R C LFE Ls Rs
Sampling rate : 48.0 kHz
Frame rate : 31.250 FPS (1536 SPF)
Compression mode : Lossy
Stream size : 360 MiB (1%)
Title : DD 5.1
Language : English
Service kind : Complete Main
Default : No
Forced : No
Original source medium : Blu-ray

Text #1
ID : 5
Format : UTF-8
Codec ID : S_TEXT/UTF8
Codec ID/Info : UTF-8 Plain Text
Duration : 1 h 47 min
Bit rate : 70 b/s
Count of elements : 1983
Stream size : 56.1 KiB (0%)
Title : SRT
Language : English
Default : Yes
Forced : No

Text #2
ID : 6
ID in the original source medium : 4768 (0x12A0)
Format : PGS
Muxing mode : zlib
Codec ID : S_HDMV/PGS
Codec ID/Info : Picture based subtitle format used on BDs/HD-DVDs
Duration : 1 h 48 min
Bit rate : 50.7 kb/s
Count of elements : 4314
Stream size : 39.4 MiB (0%)
Language : English
Default : No
Forced : No
Original source medium : Blu-ray

Text #3
ID : 7
ID in the original source medium : 4769 (0x12A1)
Format : PGS
Muxing mode : zlib
Codec ID : S_HDMV/PGS
Codec ID/Info : Picture based subtitle format used on BDs/HD-DVDs
Duration : 1 h 51 min
Bit rate : 43.3 kb/s
Count of elements : 3996
Stream size : 34.6 MiB (0%)
Language : Spanish
Default : No
Forced : No
Original source medium : Blu-ray

Text #4
ID : 8
ID in the original source medium : 4770 (0x12A2)
Format : PGS
Muxing mode : zlib
Codec ID : S_HDMV/PGS
Codec ID/Info : Picture based subtitle format used on BDs/HD-DVDs
Duration : 1 h 51 min
Bit rate : 43.8 kb/s
Count of elements : 3708
Stream size : 34.9 MiB (0%)
Language : French
Default : No
Forced : No
Original source medium : Blu-ray

Text #5
ID : 9
ID in the original source medium : 4771 (0x12A3)
Format : PGS
Muxing mode : zlib
Codec ID : S_HDMV/PGS
Codec ID/Info : Picture based subtitle format used on BDs/HD-DVDs
Duration : 1 h 52 min
Bit rate : 18.0 kb/s
Count of elements : 656
Stream size : 14.4 MiB (0%)
Language : English
Default : No
Forced : No
Original source medium : Blu-ray

Text #6
ID : 10
ID in the original source medium : 4772 (0x12A4)
Format : PGS
Muxing mode : zlib
Codec ID : S_HDMV/PGS
Codec ID/Info : Picture based subtitle format used on BDs/HD-DVDs
Duration : 1 h 52 min
Bit rate : 87.8 kb/s
Count of elements : 4344
Stream size : 70.4 MiB (0%)
Language : English
Default : No
Forced : No
Original source medium : Blu-ray

Text #7
ID : 11
ID in the original source medium : 4773 (0x12A5)
Format : PGS
Muxing mode : zlib
Codec ID : S_HDMV/PGS
Codec ID/Info : Picture based subtitle format used on BDs/HD-DVDs
Duration : 1 h 52 min
Bit rate : 78.4 kb/s
Count of elements : 3748
Stream size : 62.8 MiB (0%)
Language : English
Default : No
Forced : No
Original source medium : Blu-ray

Text #8
ID : 12
ID in the original source medium : 4774 (0x12A6)
Format : PGS
Muxing mode : zlib
Codec ID : S_HDMV/PGS
Codec ID/Info : Picture based subtitle format used on BDs/HD-DVDs
Duration : 1 h 52 min
Bit rate : 75.9 kb/s
Count of elements : 5742
Stream size : 60.9 MiB (0%)
Language : English
Default : No
Forced : No
Original source medium : Blu-ray

Text #9
ID : 13
ID in the original source medium : 4775 (0x12A7)
Format : PGS
Muxing mode : zlib
Codec ID : S_HDMV/PGS
Codec ID/Info : Picture based subtitle format used on BDs/HD-DVDs
Duration : 1 h 52 min
Bit rate : 73.4 kb/s
Count of elements : 4620
Stream size : 58.8 MiB (0%)
Language : English
Default : No
Forced : No
Original source medium : Blu-ray

Menu
00:00:00.000 : Chapter 01
00:07:24.318 : Chapter 02
00:13:14.668 : Chapter 03
00:20:01.241 : Chapter 04
00:26:00.934 : Chapter 05
00:30:49.973 : Chapter 06
00:38:52.747 : Chapter 07
00:45:25.681 : Chapter 08
00:50:18.515 : Chapter 09
00:53:55.065 : Chapter 10
00:59:15.468 : Chapter 11
01:03:10.328 : Chapter 12
01:08:04.997 : Chapter 13
01:14:23.375 : Chapter 14
01:20:18.772 : Chapter 15
01:27:47.178 : Chapter 16
01:30:43.771 : Chapter 17
01:39:14.198 : Chapter 18
01:40:49.752 : Chapter 19
01:48:34.466 : Chapter 20





旅客,假如您要检察本帖躲藏内容请复兴




上一篇:黑寡妇[中文字幕]2021.2160p.DSNP.WEB-DL.HEVC.HDR.Atmos.DDP5.1- 16.07GB
下一篇:她的马拉松.2019.2160p.AMZN.WEB-DL.x265.10bit.HDR10Plus.DDP5.1-11.14GB

精彩评论1

haibo1hao 首发之星 显示全部楼层 发表于 2021-7-12 07:38:39
楼主辛苦了,谢谢首发之家!
您需要登录后才可以回帖 登录 | 立即注册 用百度帐号登录

本版积分规则

首发之家社区成立于2011年3月,内容涉及3C家电、数码生活智能电视,股票软件,4K,体育,软件,教育,游戏等资源指标公式论坛。
  • 官方手机版

  • 抖音号

  • 商务合作

  • Powered by Discuz! X3.4 | Copyright © 2011-2021, Tencent Cloud. | 首发之家社区
  • |网站地图 | mp4d@qq.com|小黑屋|手机版|