返回顶部
  • 发帖数1353
  • 粉丝13

此人很懒,什么也没有留下

  • 最佳新人

  • 活跃会员

    经常参与各类话题的讨论,发帖内容较有主见
  • 热心会员

    经常帮助其他会员答疑
  • 社区劳模

    长期对论坛的繁荣而不断努力,或发帖主题数500以上
  • 终身成就

    为论坛做出突出贡献的会员
  • 明星会员

    在论坛有很高知名度会员
  • 爆料达人

    发帖爆料达人
开启左侧

[战争] 郑和1405:魔海寻踪.2013.2160p.WEB-DL.H265.DD2.0- 20.30GB

[复制链接]
MEN1984 捐助会员 显示全部楼层 发表于 2021-7-11 10:55:45 |阅读模式 打印 上一主题 下一主题
bda54e46db1b0fa95e25eda18d402d67.jpeg

◎译  名 Voyage Extraordinaire / 郑战1405 / 郑战·魔海劫
◎片  名 郑战1405:魔海觅踪
◎年  代 2013
◎产  天 止您年夜陆
◎类  别 动绘 / 奇异 / 冒险
◎语  行 汉语浅显话
◎上映日期 2013-11-29(止您年夜陆)
◎豆瓣评分 4.6/10 from 527 users
◎豆瓣链接 https://movie.douban.com/subject/10736409/
◎片  少 102分钟
◎导  演 墨义昌 Yichang Zhu / 下毅 Yi Gao
◎编  剧 韩似郊 Suping Han / 王菡 Han Wang
◎主  演 张靓颖 Liangying Zhang


◎标  签 止您动绘 | 动绘 | 郑战 | 止您 | 2013 | 止您电影 | 动绘电影 | 科幻

◎简  介

  少男千浪战少女燕子正在北海探险。俦蚌,台风起,船触交霈两妊殴进海中。千浪正在海堤英分明清楚明了一个奇异的青花磁器。青花瓷贮存了六百年前郑战下西洋的多量的影象质料。正在特定的条件下,青花瓷闪现出郑战下西洋的衰况。原来那个青花瓷是郑战当时誊写《帆海日记》时所用的笔洗。奇异的青花瓷,将郑战帆海险象环死,九死平生的情形逐个重现。凶悍的禽兽,狞恶的波浪,伤害的海匪,和莫名徐病,一次又一次给郑战船队带去要挟。但正在郑战的统帅下,正在船队联系分歧,同心协力,奋力抗争下,他们智怯反击,绝处逢生,一起笑傲年夜洋。
General
Complete name : 郑战1405:魔海觅踪
Format : MPEG-4
Format profile : Base Media
Codec ID : isom (isom/iso2/mp41)
File size : 20.3 GiB
Duration : 1 h 38 min
Overall bit rate : 29.5 Mb/s
Writing application : Lavf58.19.100

Video
ID : 1
Format : HEVC
Format/Info : High Efficiency Video Coding
Format profile : Main@L5@High
Codec ID : hev1
Codec ID/Info : High Efficiency Video Coding
Duration : 1 h 38 min
Bit rate : 29.1 Mb/s
Width : 3 840 pixels
Height : 2 160 pixels
Display aspect ratio : 16:9
Frame rate mode : Constant
Frame rate : 25.000 FPS
Color space : YUV
Chroma subsampling : 4:2:0
Bit depth : 8 bits
Bits/(Pixel*Frame) : 0.140
Stream size : 20.0 GiB (99%)
Color range : Limited
Color primaries : BT.709
Transfer characteristics : BT.709
Matrix coefficients : BT.709
Codec configuration box : hvcC

Audio
ID : 2
Format : AC-3
Format/Info : Audio Coding 3
Commercial name : Dolby Digital
Codec ID : ac-3
Duration : 1 h 38 min
Bit rate mode : Constant
Bit rate : 384 kb/s
Channel(s) : 2 channels
Channel layout : L R
Sampling rate : 48.0 kHz
Frame rate : 31.250 FPS (1536 SPF)
Compression mode : Lossy
Stream size : 271 MiB (1%)
Service kind : Complete Main
Default : Yes
Alternate group : 1


旅客,假如您要检察本帖躲藏内容请复兴




上一篇:拜见布莱克一家2:邻家有鬼.2021.2160p.WEB-DL.x265.10bit.SDR.DD5.1- 8.45GB
下一篇:黑寡妇[中文字幕]2021.2160p.DSNP.WEB-DL.HEVC.HDR.Atmos.DDP5.1- 16.07GB

精彩评论12

lixu111111 首发熟人 显示全部楼层 发表于 2021-7-11 17:25:56
我看不错噢,谢谢首发之家!
狂风_Vlz56 首发新人 显示全部楼层 发表于 2021-7-11 18:58:00
楼主辛苦了。。。。。
sandy0312 首发之星 显示全部楼层 发表于 2021-7-11 20:04:26
nmbjkkljkmijiiupioip/./l;kmk
哥丶心狠痛 高级首粉 显示全部楼层 发表于 2021-7-14 17:39:42
楼主辛苦了,谢谢首发之家!!
哥丶心狠痛 高级首粉 显示全部楼层 发表于 2021-7-14 17:40:00
楼主辛苦了,谢谢首发之家!!
丿丶放飞心情 首发之星 显示全部楼层 发表于 2021-7-14 18:08:08
郑和1405:魔海寻踪
Destroyer 首发熟人 显示全部楼层 发表于 2021-7-15 08:30:51
非常感谢分享
zcc102 初来首发 显示全部楼层 发表于 2021-7-17 14:49:09
zdsf魔海寻踪
︶浅Se年华﹌ 捐助会员 显示全部楼层 发表于 2021-7-17 19:41:16
顶楼主啦..希看楼主多发精品好帖啦.....
您需要登录后才可以回帖 登录 | 立即注册 用百度帐号登录

本版积分规则

首发之家社区成立于2011年3月,内容涉及3C家电、数码生活智能电视,股票软件,4K,体育,软件,教育,游戏等资源指标公式论坛。
  • 官方手机版

  • 抖音号

  • 商务合作

  • Powered by Discuz! X3.4 | Copyright © 2011-2021, Tencent Cloud. | 首发之家社区
  • |网站地图 | mp4d@qq.com|小黑屋|手机版|