返回顶部
  • 发帖数1353
  • 粉丝13

此人很懒,什么也没有留下

  • 最佳新人

  • 活跃会员

    经常参与各类话题的讨论,发帖内容较有主见
  • 热心会员

    经常帮助其他会员答疑
  • 社区劳模

    长期对论坛的繁荣而不断努力,或发帖主题数500以上
  • 终身成就

    为论坛做出突出贡献的会员
  • 明星会员

    在论坛有很高知名度会员
  • 爆料达人

    发帖爆料达人
开启左侧

[动作] 拜见布莱克一家2:邻家有鬼.2021.2160p.WEB-DL.x265.10bit.SDR.DD5.1- 8.45GB

[复制链接]
MEN1984 捐助会员 显示全部楼层 发表于 2021-7-11 10:54:38 |阅读模式 打印 上一主题 下一主题
f145edfef6307.png

◎译  名 参见布莱一家2:邻家庸捻/Meet The Blacks 2
◎片  名 The House Next Door
◎年  代 2018
◎产  天 好国
◎类  别 笑剧 / 行动 / 恐怖
◎语  行 英语
◎上映日期 2018-10(好国)
◎豆瓣评分 /10 from 0 users
◎豆瓣链接 https://movie.douban.com/subject/30257377/
◎片  少 97分钟
◎导  演 德翁·泰勒 Deon Taylor
◎主  演 祖蕾·亨奥 Zulay Henao
      布莱莎·韦伯 Bresha Webb
      迈克·艾普斯 Mike Epps
      安德鲁·巴切勒 Andrew Bachelor
      卡特·威廉姆斯 Katt Williams
      泰里恩·特纳 Tyrin Turner
      小蒂姆·约翰逊 Tim Johnson Jr.
      迈克我·布莱舡 Michael Blackson
      小杜瓦我 Lil Duval
      沙希德·伍兹 Shaheed K. Woods

◎标  签 好国 | 恐怖 | 笑剧 | 2018

◎简  介

  When best selling author Carl Black moves his family back to his childhood home, he must team up with oddball neighbors to do battle with a pimp, who may or may not be an actual vampire.
Video
ID : 1
Format : HEVC
Format/Info : High Efficiency Video Coding
Format profile : Main 10@L5@High
Codec ID : V_MPEGH/ISO/HEVC
Duration : 1 h 37 min
Bit rate : 12.0 Mb/s
Width : 3 832 pixels
Height : 1 596 pixels
Display aspect ratio : 2.40:1
Frame rate mode : Constant
Frame rate : 23.976 FPS
Color space : YUV
Chroma subsampling : 4:2:0
Bit depth : 10 bits
Bits/(Pixel*Frame) : 0.082
Stream size : 8.18 GiB (97%)
Language : English
Default : Yes
Forced : No
Color range : Limited
Color primaries : BT.709
Transfer characteristics : BT.709
Matrix coefficients : BT.709

Audio
ID : 2
Format : AC-3
Format/Info : Audio Coding 3
Commercial name : Dolby Digital
Codec ID : A_AC3
Duration : 1 h 37 min
Bit rate mode : Constant
Bit rate : 384 kb/s
Channel(s) : 6 channels
Channel layout : L R C LFE Ls Rs
Sampling rate : 48.0 kHz
Frame rate : 31.250 FPS (1536 SPF)
Compression mode : Lossy
Stream size : 267 MiB (3%)
Title : English
Language : English
Service kind : Complete Main
Default : No
Forced : No

Text
ID : 3
Format : UTF-8
Codec ID : S_TEXT/UTF8
Codec ID/Info : UTF-8 Plain Text
Duration : 1 h 34 min
Bit rate : 95 b/s
Count of elements : 1860
Stream size : 66.2 KiB (0%)
Language : English
Default : Yes
Forced : No





旅客,假如您要检察本帖躲藏内容请复兴




上一篇:移居者/定居者.2021.2160p.WEB-DL.x265.10bit.HDR.DD5.1- 10.59GB
下一篇:郑和1405:魔海寻踪.2013.2160p.WEB-DL.H265.DD2.0- 20.30GB

精彩评论2

plxiangyan 高级首粉 显示全部楼层 发表于 2021-7-11 18:16:07
楼主辛苦了,谢谢首发之家!!
哥丶心狠痛 高级首粉 显示全部楼层 发表于 2021-7-14 17:39:27
楼主辛苦了,谢谢首发之家!!
您需要登录后才可以回帖 登录 | 立即注册 用百度帐号登录

本版积分规则

首发之家社区成立于2011年3月,内容涉及3C家电、数码生活智能电视,股票软件,4K,体育,软件,教育,游戏等资源指标公式论坛。
  • 官方手机版

  • 抖音号

  • 商务合作

  • Powered by Discuz! X3.4 | Copyright © 2011-2021, Tencent Cloud. | 首发之家社区
  • |网站地图 | mp4d@qq.com|小黑屋|手机版|