返回顶部
  • 发帖数1353
  • 粉丝13

此人很懒,什么也没有留下

  • 最佳新人

  • 活跃会员

    经常参与各类话题的讨论,发帖内容较有主见
  • 热心会员

    经常帮助其他会员答疑
  • 社区劳模

    长期对论坛的繁荣而不断努力,或发帖主题数500以上
  • 终身成就

    为论坛做出突出贡献的会员
  • 明星会员

    在论坛有很高知名度会员
  • 爆料达人

    发帖爆料达人
开启左侧

[科幻] 移居者/定居者.2021.2160p.WEB-DL.x265.10bit.HDR.DD5.1- 10.59GB

[复制链接]
MEN1984 捐助会员 显示全部楼层 发表于 2021-7-11 10:53:31 |阅读模式 打印 上一主题 下一主题
7dad92227ecf4.png
◎译  名 移居者/定居者
◎片  名 Settlers
◎年  代 2021
◎产  天 英国
◎类  别 科幻
◎语  行 英语
◎上映日期 
◎豆瓣评分 /10 from 0 users
◎豆瓣链接 https://movie.douban.com/subject/35362863/
◎主  演 索菲亚·波多推 Sofia Boutella
      僧我·泰格·弗莉 Nell Tiger Free
      约翰僧·李·米勒 Jonny Lee Miller
      伊斯梅我·克鲁斯·科我多瓦 Ismael Cruz Cordova
      布鲁琳·普林斯 Brooklynn Prince

◎标  签 科幻 | 2021 | 好国 | 战争 | 生长 | 小人物 | film

◎简  介

  影片由怀特·洛克菲勒执导,故事报告Ilsa是一个去自天球的易夷易远,她战丈妇、女女一起定居正在水星遥远的卑劣干涝天带。虽然一家人只要一些庄稼战一个家映鳅械人,他们还是对美好的生活抱有希看。但当邻近的赡上出现了一群武拆打击者时,统统皆被颠覆了。母女俩必须不吝统统代价生存下往,等待最初回击的时机。该片倚汹正在北非战纳米比亚拍摄完成,目前正正在前期制作中。
Video
ID : 1
Format : HEVC
Format/Info : High Efficiency Video Coding
Format profile : Main 10@L5@High
HDR format : SMPTE ST 2086, HDR10 compatible
Codec ID : V_MPEGH/ISO/HEVC
Duration : 1 h 43 min
Bit rate : 14.3 Mb/s
Width : 3 832 pixels
Height : 1 596 pixels
Display aspect ratio : 2.40:1
Frame rate mode : Constant
Frame rate : 23.976 FPS
Color space : YUV
Chroma subsampling : 4:2:0 (Type 2)
Bit depth : 10 bits
Bits/(Pixel*Frame) : 0.097
Stream size : 10.3 GiB (97%)
Default : Yes
Forced : No
Color range : Limited
Color primaries : BT.2020
Transfer characteristics : PQ
Matrix coefficients : BT.2020 non-constant
Mastering display color primaries : BT.2020
Mastering display luminance : min: 0.0050 cd/m2, max: 1000 cd/m2
Maximum Content Light Level : 1010 cd/m2
Maximum Frame-Average Light Level : 405 cd/m2

Audio
ID : 2
Format : AC-3
Format/Info : Audio Coding 3
Commercial name : Dolby Digital
Codec ID : A_AC3
Duration : 1 h 43 min
Bit rate mode : Constant
Bit rate : 384 kb/s
Channel(s) : 6 channels
Channel layout : L R C LFE Ls Rs
Sampling rate : 48.0 kHz
Frame rate : 31.250 FPS (1536 SPF)
Compression mode : Lossy
Stream size : 284 MiB (3%)
Title : English
Language : English
Service kind : Complete Main
Default : Yes
Forced : No

Text
ID : 3
Format : UTF-8
Codec ID : S_TEXT/UTF8
Codec ID/Info : UTF-8 Plain Text
Duration : 1 h 35 min
Bit rate : 17 b/s
Count of elements : 534
Stream size : 12.0 KiB (0%)
Language : English
Default : Yes
Forced : No

Menu
00:00:00.000 : Scene 1
00:14:56.000 : Scene 2
00:29:41.250 : Scene 3
00:44:45.000 : Scene 4
00:59:36.350 : Scene 5
01:14:53.250 : Scene 6
01:31:34.150 : Scene 7
01:38:50.000 : Scene 8





旅客,假如您要检察本帖躲藏内容请复兴




上一篇:黑寡妇 / The Black Widow
下一篇:拜见布莱克一家2:邻家有鬼.2021.2160p.WEB-DL.x265.10bit.SDR.DD5.1- 8.45GB

精彩评论5

MEN1984 捐助会员 显示全部楼层 发表于 2021-7-11 12:36:17
我看不错噢,感谢首发之荚丁
lixu111111 首发熟人 显示全部楼层 发表于 2021-7-11 17:24:34
楼主辛苦了,谢谢首发之家!!
admin8899 初来首发 显示全部楼层 发表于 2021-7-13 02:49:54
是否会开始福建省客服核实客户数据库
哥丶心狠痛 高级首粉 显示全部楼层 发表于 2021-7-14 17:35:51
楼主辛苦了,谢谢首发之家!!
wmh_aI9Ix 首发新人 显示全部楼层 发表于 2021-7-15 16:23:53
楼主辛苦了,谢谢首发之家!!
您需要登录后才可以回帖 登录 | 立即注册 用百度帐号登录

本版积分规则

首发之家社区成立于2011年3月,内容涉及3C家电、数码生活智能电视,股票软件,4K,体育,软件,教育,游戏等资源指标公式论坛。
  • 官方手机版

  • 抖音号

  • 商务合作

  • Powered by Discuz! X3.4 | Copyright © 2011-2021, Tencent Cloud. | 首发之家社区
  • |网站地图 | mp4d@qq.com|小黑屋|手机版|