返回顶部
  • 发帖数1353
  • 粉丝13

此人很懒,什么也没有留下

  • 最佳新人

  • 活跃会员

    经常参与各类话题的讨论,发帖内容较有主见
  • 热心会员

    经常帮助其他会员答疑
  • 社区劳模

    长期对论坛的繁荣而不断努力,或发帖主题数500以上
  • 终身成就

    为论坛做出突出贡献的会员
  • 明星会员

    在论坛有很高知名度会员
  • 爆料达人

    发帖爆料达人
开启左侧

[剧情] 大魔域 .1984.EXTENDED.2160p.UHD.BluRay.x265.10bit.HDR.DTS-HR.5.1- 25.34GB

[复制链接]
MEN1984 捐助会员 显示全部楼层 发表于 2021-7-7 08:28:15 |阅读模式 打印 上一主题 下一主题
340dab6a0408d.png
◎译  名 年夜魔域/Die unendliche Geschichte/永久讲没有完的故事/魔域仙踪
◎片  名 The NeverEnding Story
◎年  代 1984
◎产  天 西德,好国
◎类  别 剧情 / 奇异 / 冒险
◎语  行 英语
◎上映日期 1984-07-20
◎豆瓣评分 6.9/10 from 989 users
◎豆瓣链接 https://movie.douban.com/subject/1300074/
◎片  少 102 分钟
◎导  演 沃我妇冈·钡缆森 Wolfgang Petersen
◎编  剧 赫我曼·魏格我 Herman Weigel / 沃我妇冈·钡缆森 Wolfgang Petersen / 米切我·恩德 Michael Ende / 罗伯特·伊斯顿 Robert Easton
◎主  演 巴莱特·奥利佛 Barret Oliver
      杰推我德·麦克雷僧 Gerald McRaney
      德推姆·减勒特 Drum Garrett
      达里我·库克西 Darryl Cooksey
      僧古推斯·凶我伯特 Nicholas Gilbert
      托马斯·希我 Thomas Hill
      迪普·罗伊 Deep Roy
      斯洛·派克内我 Tilo Prückner
      摩西·附 Moses Gunn
      诺亚·海瑟威 Noah Hathaway
      艾伦·欧朋海默 Alan Oppenheimer
      西德僧·布罗姆利 Sydney Bromley
      帕特里夏·海斯 Patricia Hayes
      塔米·施特罗纳赫 Tami Stronach
      海果茨·莱纳克 Heinz Reincke
      Frank Lenart Frank Lenart
      Silvia Seidel Silvia Seidel

◎标  签 奇异 | 魔幻 | 好国 | 德国 | 女童 | 好国电影 | 1984 | 冒险

◎简  介

  故事报告小男孩Bastian Bux迷上了一痹蓰叫《永没有完毕的故事》的书,故事将Bastian Bux深深吸收到书籍里,以至让他幻想本人便史狯中最主要的角色。而书中形貌的幻想国逐步被“空无”吞噬,女王由于宿徐没法抵拒“空无”,因而幻想国派出怯者Atreyu寻觅救济女王的药,Bastian Bux便正在Atreyu的追随中体验幻想国的每一个地方、生谙每小我物,随着Atreyu的欢乐取波折起伏……
  
  幻想国之以是被“空无”吞噬,是由于她是由人类的幻想所创做创做创造出去的国冀当人类没有再幻想,并忘记那些幻想时,幻想国固然便甚么也没有剩了。Bastian Bux最初创做创造幻想国中的人并出有办法救济他们本人,只要人类才气救济幻想国,他必须靠着歉沛当彪像力,重现幻想国的活力停顿……
Video
ID : 1
Format : HEVC
Format/Info : High Efficiency Video Coding
Format profile : Main 10@L5.1@High
HDR format : SMPTE ST 2086, HDR10 compatible
Codec ID : V_MPEGH/ISO/HEVC
Duration : 1 h 41 min
Bit rate : 33.0 Mb/s
Width : 3 840 pixels
Height : 1 632 pixels
Display aspect ratio : 2.35:1
Frame rate mode : Constant
Frame rate : 24.000 FPS
Color space : YUV
Chroma subsampling : 4:2:0 (Type 2)
Bit depth : 10 bits
Bits/(Pixel*Frame) : 0.220
Stream size : 23.3 GiB (94%)
Writing library : x265 3.5bf91444e0:[Windows][MSVC 1928][64 bit] 10bit
Encoding settings : cpuid=1111039 / frame-threads=5 / numa-pools=32 / wpp / no-pmode / no-pme / no-psnr / no-ssim / log-level=2 / input-csp=1 / input-res=3840x1632 / interlace=0 / total-frames=145730 / level-idc=51 / high-tier=1 / uhd-bd=0 / ref=4 / no-allow-non-conformance / repeat-headers / annexb / aud / no-eob / no-eos / hrd / info / hash=0 / no-temporal-layers / no-open-gop / min-keyint=23 / keyint=250 / gop-lookahead=0 / bframes=4 / b-adapt=2 / b-pyramid / bframe-bias=0 / rc-lookahead=25 / lookahead-slices=4 / scenecut=40 / hist-scenecut=0 / radl=0 / no-splice / no-intra-refresh / ctu=64 / min-cu-size=8 / rect / no-amp / max-tu-size=32 / tu-inter-depth=1 / tu-intra-depth=1 / limit-tu=0 / rdoq-level=2 / dynamic-rd=0.00 / no-ssim-rd / signhide / no-tskip / nr-intra=0 / nr-inter=0 / no-constrained-intra / no-strong-intra-smoothing / max-merge=3 / limit-refs=3 / limit-modes / me=3 / subme=3 / merange=57 / temporal-mvp / no-frame-dup / no-hme / weightp / no-weightb / no-analyze-src-pics / deblock=-3:-3 / no-sao / no-sao-non-deblock / rd=4 / selective-sao=0 / no-early-skip / rskip / no-fast-intra / no-tskip-fast / no-cu-lossless / no-b-intra / no-splitrd-skip / rdpenalty=0 / psy-rd=2.00 / psy-rdoq=1.00 / no-rd-refine / no-lossless / cbqpoffs=0 / crqpoffs=0 / rc=crf / crf=14.0 / qcomp=0.60 / qpstep=4 / stats-write=0 / stats-read=0 / vbv-maxrate=160000 / vbv-bufsize=160000 / vbv-init=0.9 / min-vbv-fullness=50.0 / max-vbv-fullness=80.0 / crf-max=0.0 / crf-min=0.0 / ipratio=1.40 / pbratio=1.30 / aq-mode=2 / aq-strength=1.00 / cutree / zone-count=0 / no-strict-cbr / qg-size=32 / no-rc-grain / qpmax=69 / qpmin=0 / no-const-vbv / sar=1 / overscan=0 / videoformat=5 / range=0 / colorprim=9 / transfer=16 / colormatrix=9 / chromaloc=1 / chromaloc-top=2 / chromaloc-bottom=2 / display-window=0 / master-display=G(13250,34500)B(7500,3000)R(34000,16000)WP(15635,16450)L(10000000,50) / cll=586,995 / min-luma=0 / max-luma=1023 / log2-max-poc-lsb=8 / vui-timing-info / vui-hrd-info / slices=1 / no-opt-qp-pps / no-opt-ref-list-length-pps / no-multi-pass-opt-rps / scenecut-bias=0.05 / hist-threshold=0.03 / no-opt-cu-delta-qp / no-aq-motion / hdr10 / hdr10-opt / no-dhdr10-opt / no-idr-recovery-sei / analysis-reuse-level=0 / analysis-save-reuse-level=0 / analysis-load-reuse-level=0 / scale-factor=0 / refine-intra=0 / refine-inter=0 / refine-mv=1 / refine-ctu-distortion=0 / no-limit-sao / ctu-info=0 / no-lowpass-dct / refine-analysis-type=0 / copy-pic=1 / max-ausize-factor=1.0 / no-dynamic-refine / no-single-sei / no-hevc-aq / no-svt / no-field / qp-adaptation-range=1.00 / scenecut-aware-qp=0conformance-window-offsets / right=0 / bottom=0 / decoder-max-rate=0 / no-vbv-live-multi-pass
Language : English
Default : Yes
Forced : No
Color range : Limited
Color primaries : BT.2020
Transfer characteristics : PQ
Matrix coefficients : BT.2020 non-constant
Mastering display color primaries : Display P3
Mastering display luminance : min: 0.0050 cd/m2, max: 1000 cd/m2
Maximum Content Light Level : 586 cd/m2
Maximum Frame-Average Light Level : 995 cd/m2

Audio #1
ID : 2
ID in the original source medium : 4354 (0x1102)
Format : DTS XBR
Format/Info : Digital Theater Systems
Commercial name : DTS-HD High Resolution Audio
Codec ID : A_DTS
Duration : 1 h 41 min
Bit rate mode : Constant
Bit rate : 2 046 kb/s
Channel(s) : 6 channels
Channel layout : C L R Ls Rs LFE
Sampling rate : 48.0 kHz
Frame rate : 93.750 FPS (512 SPF)
Bit depth : 24 bits
Compression mode : Lossy
Stream size : 1.45 GiB (6%)
Title : ENG DTS-HD HRA 5.1
Language : English
Default : Yes
Forced : No
Original source medium : Blu-ray

Audio #2
ID : 3
ID in the original source medium : 4355 (0x1103)
Format : AC-3
Format/Info : Audio Coding 3
Commercial name : Dolby Digital
Codec ID : A_AC3
Duration : 1 h 41 min
Bit rate mode : Constant
Bit rate : 224 kb/s
Channel(s) : 2 channels
Channel layout : L R
Sampling rate : 48.0 kHz
Frame rate : 31.250 FPS (1536 SPF)
Compression mode : Lossy
Stream size : 162 MiB (1%)
Title : ENG AC3 Stereo
Language : English
Service kind : Complete Main
Default : No
Forced : No
Original source medium : Blu-ray

Menu
00:00:00.000 : Chapter 01
00:06:13.041 : Chapter 02
00:08:00.000 : Chapter 03
00:13:12.375 : Chapter 04
00:19:45.208 : Chapter 05
00:24:05.625 : Chapter 06
00:29:41.666 : Chapter 07
00:33:43.791 : Chapter 08
00:39:30.541 : Chapter 09
00:45:05.208 : Chapter 10
00:47:54.916 : Chapter 11
00:52:05.708 : Chapter 12
00:58:53.958 : Chapter 13
01:03:03.125 : Chapter 14
01:06:25.750 : Chapter 15
01:10:57.208 : Chapter 16
01:16:21.958 : Chapter 17
01:22:15.541 : Chapter 18
01:25:08.208 : Chapter 19
01:27:25.041 : Chapter 20
01:33:44.083 : Chapter 21
01:38:26.666 : Chapter 22





旅客,假如您要检察本帖躲藏内容请复兴




上一篇:[2016][分裂][BD-MKV/22.98GB][双语字幕][4K-2160P][HDR版本]
下一篇:空中大灌篮/太空也入樽.1996.2160p.BluRay.REMUX.HEVC.DTS-HD.MA.TrueHD.7.1- 52.85GB

精彩评论4

哥丶心狠痛 高级首粉 显示全部楼层 发表于 2021-7-7 08:34:06
楼主辛苦了,谢谢首发之家!!
kpsvsy 首发之星 显示全部楼层 发表于 2021-7-7 18:58:29
首发之家不能没有像楼主这样的人才!
117087967 高级首粉 显示全部楼层 发表于 2021-7-7 21:39:55
哈哈哈哈哈哈哈哈哈哈哈哈哈哈哈哈哈哈哈哈哈哈
79933881 高级首粉 显示全部楼层 发表于 2021-7-8 12:09:31
楼主辛苦了,谢谢首发之家!!
您需要登录后才可以回帖 登录 | 立即注册 用百度帐号登录

本版积分规则

首发之家社区成立于2011年3月,内容涉及3C家电、数码生活智能电视,股票软件,4K,体育,软件,教育,游戏等资源指标公式论坛。
  • 官方手机版

  • 抖音号

  • 商务合作

  • Powered by Discuz! X3.4 | Copyright © 2011-2021, Tencent Cloud. | 首发之家社区
  • |网站地图 | mp4d@qq.com|小黑屋|手机版|