返回顶部
  • 发帖数1648
  • 粉丝19

此人很懒,什么也没有留下

  • 最佳新人

  • 活跃会员

    经常参与各类话题的讨论,发帖内容较有主见
  • 热心会员

    经常帮助其他会员答疑
  • 灌水之王

    经常在论坛发帖,且发帖量较大
  • 社区劳模

    长期对论坛的繁荣而不断努力,或发帖主题数500以上
  • 终身成就

    为论坛做出突出贡献的会员
  • QQ绑定

    QQ绑定会员
  • 明星会员

    在论坛有很高知名度会员
  • 沙发达人

    抢沙总数达到100
  • 光悦帅哥

    上传了自己真人秀照片就可以获得勋章哦~
  • 实名认证

    通过身份证实名认证
  • 爆料达人

    发帖爆料达人
开启左侧

[剧情] [2021][我要我们在一起][WEB-MKV/11.99GB][国语音轨+中文字幕][4K-2160P]

[复制链接]
dolgm 高级首粉 显示全部楼层 发表于 2021-7-4 16:53:44 |阅读模式 打印 上一主题 下一主题
dc2fed6001e809e4553f90cc6fad9a59.jpeg

◎译  名 10年女友/Love Will Tear Us Apart/取我十年短跑的女友来日诰日要娶人了/十年女友
◎片  名 我要我玫邻一同
◎年  代 2021
◎产  天 止您年夜陆
◎类  别 剧情 / 恋爱
◎语  行 汉语一般话
◎上映日期 2021-05-20(止您年夜陆)
◎豆瓣评分 6.2/10 from 44518 users
◎豆瓣链接 https://movie.douban.com/subject/25881778/
◎片  少 105分钟
◎导  演 戈壁 Mo Sha
◎编  剧 王志怯 Zhiyong Wang / 付丹迪 Dandi Fu / 李海波 Haibo Li
◎主  演 伸楚萧 Chuxiao Qu
      张婧仪 Jingyi Zhang
      孙宁 Ning Sun
      张垚 Yao Zhang
      李嘉灏 Jiahao Li
      裴魁山 Kuishan Pei
      金靖启 Jingcheng Jin
      金世佳 Shijia Jin
      杖佑贤 Zixian Zhang

◎标  签 恋爱 | 芳华 | 爱情 | 情侣 | 冉酊 | 国产片 | 止您年夜陆 | 青年必看同天良品

◎简  介

  您有无爱过一小我私家,已经拼了命,职讵战TA正在一同。十年前,好死吕钦扬当寡广告凌一尧,两人从校园步进社会,为了让她幸运,他不吝以命相搏。但是款项、屋子、婚姻等理想的磨练,却将两人越推越近。十年短跑,他们可否借记得已经刻正在心底的商定:我要我玫邻一同。
  
  影戏改编自少帖《取我十年短跑的女友来日诰日要娶人了》。
General
Unique ID : 206268513076066329482981338555940913867 (0x9B2DDEDF19B6BEC2CDB3B2DE8728C2CB)
Complete name : Love.Will.Tear.Us.Apart.2021.WEB-DL.4K.H265.DDP.5.1-Dave.mkv
Format : Matroska
Format version : Version 4
File size : 12.0 GiB
Duration : 1 h 44 min
Overall bit rate : 16.4 Mb/s
Encoded date : UTC 2021-07-03 08:25:25
Writing application : mkvmerge v58.0.0 ('Supper's Ready') 64-bit
Writing library : libebml v1.4.2 + libmatroska v1.6.4

Video
ID : 1
Format : HEVC
Format/Info : High Efficiency Video Coding
Format profile : Main@L5@Main
Codec ID : V_MPEGH/ISO/HEVC
Duration : 1 h 44 min
Bit rate : 16.0 Mb/s
Width : 3 840 pixels
Height : 1 512 pixels
Display aspect ratio : 2.540
Frame rate mode : Constant
Frame rate : 24.000 FPS
Color space : YUV
Chroma subsampling : 4:2:0
Bit depth : 8 bits
Bits/(Pixel*Frame) : 0.115
Stream size : 11.7 GiB (97%)
Default : Yes
Forced : No

Audio #1
ID : 2
Format : E-AC-3
Format/Info : Enhanced AC-3
Commercial name : Dolby Digital Plus
Codec ID : A_EAC3
Duration : 1 h 44 min
Bit rate mode : Constant
Bit rate : 256 kb/s
Channel(s) : 6 channels
Channel layout : L R C LFE Ls Rs
Sampling rate : 48.0 kHz
Frame rate : 31.250 FPS (1536 SPF)
Compression mode : Lossy
Stream size : 191 MiB (2%)
Language : Chinese
Service kind : Complete Main
Default : Yes
Forced : No

Audio #2
ID : 3
Format : AAC LC
Format/Info : Advanced Audio Codec Low Complexity
Codec ID : A_AAC-2
Duration : 1 h 44 min
Bit rate : 192 kb/s
Channel(s) : 2 channels
Channel layout : L R
Sampling rate : 44.1 kHz
Frame rate : 43.066 FPS (1024 SPF)
Compression mode : Lossy
Stream size : 142 MiB (1%)
Language : Chinese
Default : Yes
Forced : No



旅客,假如您要检察本帖躲藏内容请复兴




上一篇:龙牌之谜[国语音轨/中文字幕].2019.2160p.HDR.UHD.Blu. HD.MA.5.1.2Audio.x265.13....
下一篇:[2017][马柔本宅秘事][BD-MKV/17.40GB][中文字幕][4K-2160P][HDR版本]

精彩评论41

zhuer717 首发之星 显示全部楼层 发表于 2021-7-4 17:09:04
与我十年长跑的女友明天要嫁人了……感觉不一样
暴风影咖 首发熟人 显示全部楼层 发表于 2021-7-4 18:20:25
谢谢楼主分享
痴汉拱白菜 初来首发 实名认证  显示全部楼层 发表于 2021-7-4 19:10:51
爱情片里面这部还是值得看的,谢谢楼主分享
天下877 首发之星 显示全部楼层 发表于 2021-7-4 19:19:16
楼主辛苦了,谢谢首发之家!!
ruixiaohu 捐助会员 显示全部楼层 发表于 2021-7-4 20:03:58
楼主辛苦了,感谢首发之荚丁!
痴汉拱白菜 初来首发 实名认证  显示全部楼层 发表于 2021-7-4 20:37:31
楼主辛苦了,谢谢首发之家!!
奔跑的_XGryU 首发之星 显示全部楼层 发表于 2021-7-4 20:55:58
E: [2021][我要我们在一起][WEB-MKV/11.99GB][国语音轨+中文字幕][4K-2160P] [[url=]修改[/url]]
幻想_j5j0w 首发之星 显示全部楼层 发表于 2021-7-4 20:56:39
谢谢楼主分享
贺烨_IkmnN 首发熟人 显示全部楼层 发表于 2021-7-4 22:49:56
首发之家不能没有像楼主这样的人才!
您需要登录后才可以回帖 登录 | 立即注册 用百度帐号登录

本版积分规则

首发之家社区成立于2011年3月,内容涉及3C家电、数码生活智能电视,股票软件,4K,体育,软件,教育,游戏等资源指标公式论坛。
  • 官方手机版

  • 抖音号

  • 商务合作

  • Powered by Discuz! X3.4 | Copyright © 2011-2021, Tencent Cloud. | 首发之家社区
  • |网站地图 | mp4d@qq.com|小黑屋|手机版|