返回顶部
  • 发帖数1632
  • 粉丝19

此人很懒,什么也没有留下

  • 最佳新人

  • 活跃会员

    经常参与各类话题的讨论,发帖内容较有主见
  • 热心会员

    经常帮助其他会员答疑
  • 灌水之王

    经常在论坛发帖,且发帖量较大
  • 社区劳模

    长期对论坛的繁荣而不断努力,或发帖主题数500以上
  • 终身成就

    为论坛做出突出贡献的会员
  • QQ绑定

    QQ绑定会员
  • 明星会员

    在论坛有很高知名度会员
  • 沙发达人

    抢沙总数达到100
  • 光悦帅哥

    上传了自己真人秀照片就可以获得勋章哦~
  • 实名认证

    通过身份证实名认证
  • 爆料达人

    发帖爆料达人
开启左侧

[动作] 龙牌之谜[国语音轨/中文字幕].2019.2160p.HDR.UHD.Blu. HD.MA.5.1.2Audio.x265.13....

[复制链接]
dolgm 高级首粉 显示全部楼层 发表于 2021-6-30 08:42:04 |阅读模式 打印 上一主题 下一主题
p2563494916.jpg

◎译  名 龙牌之谜 / 止您纪行:龙牌之谜 / 妖怪的肉体2 / ТЫ疼на П臻Ы啼и дрЫ誊она: Пут贞浙твие в КитЫ疼 / Вий 2 / Viy 2 / Journey to China: The Secret of the Seal of the Dragon / Mystery of Dragon's Seal
◎片  名 ТЫ疼на п臻Ы啼и дрЫ誊она
◎年  代 2019
◎产  天 俄罗斯 / 止您年夜陆 / 好国
◎类  别 行动 / 奇异 / 冒险
◎语  行 英语 / 俄语 / 汉语一般话
◎上映日期 2019-08-16(止您年夜陆)
◎IMDb链接 https://www.imdb.com/title/tt6218010/
◎豆瓣评分 3.6/10 (15598人评价)
◎豆瓣链接 https://movie.douban.com/subject/26367602/
◎片  少 120分钟
◎导  演 伊哥·斯坦普陈科 Oleg Stepchenko (id:1029440)
◎编  剧 阿列克开·钡烂缕衾 Alexey A. Petrukhin (id:1204202)
      伊哥·斯坦普陈科 Oleg Stepchenko (id:1029440)
◎演  员 成龙 Jackie Chan (id:1054531)
      阿诺·施瓦辛格 Arnold Schwarzenegger (id:1035643)
      杰森·弗莱明 Jason Flemyng (id:1027179)
      姚星彤 Xingtong Yao (id:1318516)
      马丽 Li Ma (id:1319032)
      李彧 Yu Li (id:1316548)
      刘址幔 Lance Luu (id:1330554)
      刘智堂 Charles Luu (id:1330553)
      刘智谦 Mark Luu (id:1330552)
      李萌萌 Mengmeng Li (id:1354680)
      安挠毪邱丽娜 Anna Churina (id:1177358)
      尤里·科洛科利僧科妇 Yuri Kolokolnikov (id:1038720)
      巴维我·沃利亚 Pavel Volya (id:1238682)
      渴攀里斯托弗·法里班克 Christopher Fairbank (id:1085042)
      马丁·科勒巴 Martin Klebba (id:1010683)
      查我斯·丹斯 Charles Dance (id:1027299)
      鲁特格我·哈我 Rutger Hauer (id:1006991)
      巴雷特·科茨 Barret Coates (id:1418271)
      伊戈我·日日金 Igor Jijikin (id:1340634)
      娜露潘格慕·柴辛 Narupornkamol Chaisang (id:1368708)
      安德烈·梅我兹利金 Andrey Merzlikin (id:1212753)
      维伦·巴比切妇 Vilen Babichev (id:1384013)
      苼楠塔茬·塔纳潘披垂 Sananthachat Thanapatpisal (id:1334541)
      钡烂·推斐我森 Peter Rafelson (id:1042141)
      僧基塔·塔推索妇 Nikita Tarasov (id:1364958)
      阿列克开·钡烂缕衾 Alexey A. Petrukhin (id:1204202)
      葵咪莎推·普碟 Kemisara Paladesh (id:1346295)
      安东僧·减瓦德 Anthony Gavard (id:1364555)
      马蒂厄·俗克 Mathieu Jaquet (id:1409307)
      莱安德罗·梅厄·马丁内斯 Leandro Mayor Martinez (id:1409308)
      赵婉瑜 Wanyu Zhao (id:1386344)
      梁新展 Xinzhan Liang (id:1402279)
      李建桥 Lijianqiao (id:1385223)
      查俗妮·臣姗卡维 Chayanit Chansangavej (id:1422568)
      阿诺·施瓦辛格 Arnold Schwarzenegger (id:1035643)

◎标  签 奇异 / 行动 / 止您 / 魔幻 / 冒险 / 2019 / 俄罗斯 / 阿诺德·施瓦辛格

◎简  介
  影戏《龙牌之谜≡膊述了陈腐的东圆传道——龙王正在睡觉的时分睫毛少到天里可以少出茶叶。龙王把法力启印正在龙牌里,并把这类力气付与了替他顾问睫毛的黑邪术巨匠(成龙饰)战他的女女成兰(姚星彤饰)。罪恶的乌邪术师将黑邪术巨匠战成兰闭进了同国牢狱,龙王也堕入聊媪睡,以茶叶为死的广阔村平易近今后糊口正在安居乐业当中……

◎获奖状况 (共1项)
  第41届金酸莓奖 (2021)
  最好囊射角(提名)
   └──阿诺·施瓦辛格 (id:1035643)
General
Unique ID : 6202402525777531259762421060695902530 (0x4AA8A0DEFBD1AB56B79175B5D1A4942)
Complete name : Journey.to.China.The.Mystery.of.Iron.Mask.2019.2160p.HDR.UHD.BluRay.DTS-HD.MA.5.1.2Audio.x265-10bit-HDS.mkv
Format : Matroska
Format version : Version 4
File size : 13.0 GiB
Duration : 2 h 0 min
Overall bit rate mode : Variable
Overall bit rate : 15.5 Mb/s
Movie name : Journey to China The Mystery of Iron Mask 2019 2160p HDR UHD BluRay DTS-HD MA 5.1 2Audio x265-10bit-HDS
Encoded date : UTC 2021-06-27 03:37:36
Writing application : mkvmerge v38.0.0 ('The Silent Type') 64-bit
Writing library : libebml v1.3.9 + libmatroska v1.5.2

Video
ID : 1
Format : HEVC
Format/Info : High Efficiency Video Coding
Format profile : Main 10@L5.1@High
HDR format : SMPTE ST 2086, HDR10 compatible
Codec ID : V_MPEGH/ISO/HEVC
Duration : 2 h 0 min
Bit rate : 12.9 Mb/s
Width : 3 840 pixels
Height : 2 024 pixels
Display aspect ratio : 1.897
Frame rate mode : Constant
Frame rate : 23.976 (24000/1001) FPS
Color space : YUV
Chroma subsampling : 4:2:0
Bit depth : 10 bits
Bits/(Pixel*Frame) : 0.069
Stream size : 10.8 GiB (83%)
Title : @HDSky
Writing library : x265 - H.265/HEVC codec
Default : Yes
Forced : No
Color range : Limited
Color primaries : BT.2020
Transfer characteristics : PQ
Matrix coefficients : BT.2020 non-constant
Mastering display color primaries : Display P3
Mastering display luminance : min: 0.0020 cd/m2, max: 1000 cd/m2
Maximum Content Light Level : 739 cd/m2
Maximum Frame-Average Light Level : 331 cd/m2

Audio #1
ID : 2
Format : DTS XLL
Format/Info : Digital Theater Systems
Commercial name : DTS-HD Master Audio
Codec ID : A_DTS
Duration : 2 h 0 min
Bit rate mode : Variable
Bit rate : 2 208 kb/s
Channel(s) : 6 channels
Channel layout : C L R Ls Rs LFE
Sampling rate : 48.0 kHz
Frame rate : 93.750 FPS (512 SPF)
Bit depth : 16 bits
Compression mode : Lossless
Stream size : 1.86 GiB (14%)
Title : English
Language : English
Default : Yes
Forced : No

Audio #2
ID : 3
Format : AC-3
Format/Info : Audio Coding 3
Commercial name : Dolby Digital
Codec ID : A_AC3
Duration : 2 h 0 min
Bit rate mode : Constant
Bit rate : 384 kb/s
Channel(s) : 6 channels
Channel layout : L R C LFE Ls Rs
Sampling rate : 48.0 kHz
Frame rate : 31.250 FPS (1536 SPF)
Compression mode : Lossy
Stream size : 331 MiB (2%)
Title : Mandarin
Language : Chinese
Service kind : Complete Main
Default : No
Forced : No

Text #1
ID : 4
Format : PGS
Muxing mode : zlib
Codec ID : S_HDMV/PGS
Codec ID/Info : Picture based subtitle format used on BDs/HD-DVDs
Duration : 1 h 51 min
Bit rate : 18.9 kb/s
Count of elements : 2159
Stream size : 15.1 MiB (0%)
Title : CHS
Language : Chinese
Default : Yes
Forced : No

Text #2
ID : 5
Format : PGS
Muxing mode : zlib
Codec ID : S_HDMV/PGS
Codec ID/Info : Picture based subtitle format used on BDs/HD-DVDs
Duration : 1 h 51 min
Bit rate : 19.7 kb/s
Count of elements : 2159
Stream size : 15.7 MiB (0%)
Title : CHT
Language : Chinese
Default : No
Forced : No

Menu
00:00:00.000 : en:Chapter 01
00:11:38.197 : en:Chapter 02
00:20:58.883 : en:Chapter 03
00:29:33.897 : en:Chapter 04
00:39:21.025 : en:Chapter 05
00:49:42.771 : en:Chapter 06
01:00:56.403 : en:Chapter 07
01:09:50.478 : en:Chapter 08
01:19:31.308 : en:Chapter 09
01:29:00.126 : en:Chapter 10
01:40:43.037 : en:Chapter 11
01:50:20.864 : en:Chapter 12



旅客,假如您要检察本帖躲藏内容请复兴




上一篇:你的婚礼[国语音轨]2021.2160p.WEB-DL.DD5.1.H265-13.77GB
下一篇:[2021][我要我们在一起][WEB-MKV/11.99GB][国语音轨+中文字幕][4K-2160P]

精彩评论12

贵启_n97k5 首发新人 显示全部楼层 发表于 2021-6-30 10:20:26
这个不错啊 谢谢啦
哥丶心狠痛 高级首粉 显示全部楼层 发表于 2021-6-30 10:28:20
楼主辛苦了,谢谢首发之家!!
sunli19771122 高级首粉 显示全部楼层 发表于 2021-6-30 13:39:11
首发之家不能没有像楼主这样的人才!
木易L 首发之星 显示全部楼层 发表于 2021-7-1 11:00:09
楼主辛苦了,谢谢首发之家!!
creastinn 首发之星 显示全部楼层 发表于 2021-7-1 11:33:44
感谢楼主分享!非常感谢!!!
Chaelimcho 首发熟人 显示全部楼层 发表于 2021-7-1 18:27:13
感谢楼主的分享
诙谐游龙 首发熟人 显示全部楼层 发表于 2021-7-1 19:22:59
首发之家不能没有像楼主这样的人才!
sunsion 高级首粉 显示全部楼层 发表于 2021-7-2 00:07:43
楼主辛苦了,谢谢首发之家!!
您需要登录后才可以回帖 登录 | 立即注册 用百度帐号登录

本版积分规则

首发之家社区成立于2011年3月,内容涉及3C家电、数码生活智能电视,股票软件,4K,体育,软件,教育,游戏等资源指标公式论坛。
  • 官方手机版

  • 抖音号

  • 商务合作

  • Powered by Discuz! X3.4 | Copyright © 2011-2021, Tencent Cloud. | 首发之家社区
  • |网站地图 | mp4d@qq.com|小黑屋|手机版|