返回顶部
  • 发帖数1648
  • 粉丝19

此人很懒,什么也没有留下

  • 最佳新人

  • 活跃会员

    经常参与各类话题的讨论,发帖内容较有主见
  • 热心会员

    经常帮助其他会员答疑
  • 灌水之王

    经常在论坛发帖,且发帖量较大
  • 社区劳模

    长期对论坛的繁荣而不断努力,或发帖主题数500以上
  • 终身成就

    为论坛做出突出贡献的会员
  • QQ绑定

    QQ绑定会员
  • 明星会员

    在论坛有很高知名度会员
  • 沙发达人

    抢沙总数达到100
  • 光悦帅哥

    上传了自己真人秀照片就可以获得勋章哦~
  • 实名认证

    通过身份证实名认证
  • 爆料达人

    发帖爆料达人
开启左侧

[爱情] 你的婚礼[国语音轨]2021.2160p.WEB-DL.DD5.1.H265-13.77GB

[复制链接]
dolgm 高级首粉 显示全部楼层 发表于 2021-6-30 08:39:38 |阅读模式 打印 上一主题 下一主题
p2639318976.jpg

◎译  名 您的婚礼 / My Love
◎年  代 2021
◎产  天 止您年夜陆
◎类  别 恋爱
◎语  行 汉语一般话
◎上映日期 2021-04-30(止您年夜陆)
◎IMDb链接 https://www.imdb.com/title/tt14503918/
◎豆瓣评分 4.9/10 (101825人评价)
◎豆瓣链接 https://movie.douban.com/subject/34973399/
◎片  少 115分钟
◎导  演 韩天 Tian Han (id:1314722)
◎编  剧 张影 Ying Zhang (id:1365447)
      焦胬锩 Tingting Jiao (id:1338896)
      韩天 Tian Han (id:1314722)
◎演  员 许光汉 Greg Hsu (id:1364539)
      章若楠 Ruonan Zhang (id:1397180)
      丁冠森 Guansen Ding (id:1355327)
      晏紫东 Zidong Yan (id:1362288)
      郭丞 Cheng Guo (id:1410008)
      王莎莎 Shasha Wang (id:1274647)
      梁靖康 Jingkang Liang (id:1370070)
      刘迅 Xun Liu (id:1370365)
      陈佳妍 Jiayan Chen (id:1319246)
      茹常虎 Ru Chang Hu (id:1378186)
      王鹏 Peng Wang (id:1366073)
      王鲁 Lu Wang (id:1348497)
      虞海明 Hailiang Yu (id:1442292)
      梁浩 Hao Liang (id:1343081)
      嘉泽 Claire (id:1437777)
      王冠淇 Guanqi Wang (id:1387972)
      缓一娢 Yihan Xu (id:1390430)
      卜冠古 Guanjin Bu (id:1362971)
      杜秀军 Xiujun Du (id:1389388)
      常海波 Haibo Chang (id:1336857)
      崔奕 Yi Cui (id:1337870)
      妹︺ Xiu Meng (id:1330833)
      刘军 Jun Liu (id:1397723)
      张弘毅 Hongyi Zhang (id:1319593)
      王少田 Changtian Wang (id:1356370)
      曹晓北 Xiaobei Cao (id:1453465)
      刘琼芳 Qiongfang Liu (id:1417977)
      罗恩妮 Annie Lo (id:1378383)
      赵珂 Ke Zhao (id:1457600)
      陈建骐 Chien-Ci Chen (id:1316643)
      墨琳 Lin Zhu (id:1378385)
      何爽 Shuang He (id:1384718)
      许力文 Li Wen Hsu (id:1362886)
      张洪伟 Hongwei Zhang (id:1330645)
      龙筱竹 Xiaozhu Long (id:1389654)
      张金岩 Rocky Zhang (id:1401864)

◎标  签 恋爱 / 芳华 / 许光汉 / 初恋 / 校园 / 章若楠 / 婚礼 / 影戏

◎简  介
  泅水专长死周潇齐(许光汉饰)正在一匆羊架变乱中,对初去乍到的转校死尤咏慈(章若楠饰)一睹钟情,周潇齐洞咳咏慈冷静保护,接二连三的倒是女孩的没有告而别。随后的冉酊,周潇齐并出有考上年夜教,正在做网管的间隙忽然发明了尤咏慈的踪影,因而周潇齐复读考上了尤咏慈的年夜教,为的只实临次站正在她眼前再绝前缘。两鹊辣编逢并出有像设想中那种甘美,“爱情的机会”老是没有属于周潇齐,虽然逝世党张放(丁冠森饰)等人念尽法子协助周潇齐逃爱,可尤咏慈的身旁曾经有了教少(梁靖康饰)的陪同。结业后的两人千里迢迢,运气却再次让他们相逢,尔后的冉酊,15年的恋爱短跑。您的婚礼,也是我的成仁攀礼。
General
Unique ID : 244157446398997892986118862119484796277 (0xB7AF0382EC9A192314C9DC806ACC2D75)
Complete name : 您的婚礼.My.Love.2021.2160p.WEB-DL.DD5.1.H265-HDSWEB.mkv
Format : Matroska
Format version : Version 4
File size : 13.8 GiB
Duration : 1 h 54 min
Overall bit rate : 17.2 Mb/s
Encoded date : UTC 2021-06-25 07:44:41
Writing application : mkvmerge v40.0.0 ('Old Town Road + Pony') 64-bit
Writing library : libebml v1.3.9 + libmatroska v1.5.2

Video
ID : 1
Format : HEVC
Format/Info : High Efficiency Video Coding
Format profile : Main@L5@Main
Codec ID : V_MPEGH/ISO/HEVC
Duration : 1 h 54 min
Bit rate : 16.9 Mb/s
Width : 3 840 pixels
Height : 2 072 pixels
Display aspect ratio : 1.85:1
Frame rate mode : Constant
Frame rate : 25.000 FPS
Color space : YUV
Chroma subsampling : 4:2:0
Bit depth : 8 bits
Bits/(Pixel*Frame) : 0.085
Stream size : 13.6 GiB (99%)
Default : Yes
Forced : No

Audio
ID : 2
Format : E-AC-3
Format/Info : Enhanced AC-3
Commercial name : Dolby Digital Plus
Codec ID : A_EAC3
Duration : 1 h 54 min
Bit rate mode : Constant
Bit rate : 256 kb/s
Channel(s) : 6 channels
Channel layout : L R C LFE Ls Rs
Sampling rate : 48.0 kHz
Frame rate : 31.250 FPS (1536 SPF)
Compression mode : Lossy
Stream size : 210 MiB (1%)
Title : Mandarin
Language : Chinese
Service kind : Complete Main
Default : Yes
Forced : No



旅客,假如您要检察本帖躲藏内容请复兴




上一篇:国家宝藏/国家财宝2004.2160p.DSNP.WEB-DL.x265.10bit.HDR.DTS-HD.MA.5.1-19.49GB
下一篇:龙牌之谜[国语音轨/中文字幕].2019.2160p.HDR.UHD.Blu. HD.MA.5.1.2Audio.x265.13....

精彩评论17

haibo1hao 首发之星 显示全部楼层 发表于 2021-6-30 09:46:12
楼主辛苦了,谢谢首发之家!!
哥丶心狠痛 高级首粉 显示全部楼层 发表于 2021-6-30 10:28:52
楼主辛苦了,谢谢首发之家!!
creastinn 首发之星 显示全部楼层 发表于 2021-7-1 11:37:27
感谢楼主分享!非常感谢!!!
sanwa97 黄金首粉 显示全部楼层 发表于 2021-7-2 15:31:51
首发之家不能没有像楼主这样的人才!
superjackman12 首发熟人 实名认证  显示全部楼层 发表于 2021-7-3 09:39:08
青春偶像剧,下来

AENVGIELL 初来首发 显示全部楼层 发表于 2021-7-8 11:21:30
楼主辛苦了,谢谢首发之家!
CCyLzz 首发新人 显示全部楼层 发表于 2021-7-9 22:41:18
你的婚礼你的婚礼你的婚礼你的婚礼你的婚礼你的婚礼你的婚礼你的婚礼你的婚礼你的婚礼
Ailong_tB1H9 首发新人 显示全部楼层 发表于 2021-7-9 23:34:27
你的婚礼[国语音轨]2021.2160p.WEB-DL.DD5.1.H265-13.77GB



anfernee23 初来首发 显示全部楼层 发表于 2021-7-10 02:06:04

你的婚礼你的婚礼你的婚礼你的婚礼你的婚礼你的婚礼你的婚礼你的婚礼你的婚礼你的婚礼
您需要登录后才可以回帖 登录 | 立即注册 用百度帐号登录

本版积分规则

首发之家社区成立于2011年3月,内容涉及3C家电、数码生活智能电视,股票软件,4K,体育,软件,教育,游戏等资源指标公式论坛。
  • 官方手机版

  • 抖音号

  • 商务合作

  • Powered by Discuz! X3.4 | Copyright © 2011-2021, Tencent Cloud. | 首发之家社区
  • |网站地图 | mp4d@qq.com|小黑屋|手机版|