返回顶部
  • 发帖数1648
  • 粉丝19

此人很懒,什么也没有留下

  • 最佳新人

  • 活跃会员

    经常参与各类话题的讨论,发帖内容较有主见
  • 热心会员

    经常帮助其他会员答疑
  • 灌水之王

    经常在论坛发帖,且发帖量较大
  • 社区劳模

    长期对论坛的繁荣而不断努力,或发帖主题数500以上
  • 终身成就

    为论坛做出突出贡献的会员
  • QQ绑定

    QQ绑定会员
  • 明星会员

    在论坛有很高知名度会员
  • 沙发达人

    抢沙总数达到100
  • 光悦帅哥

    上传了自己真人秀照片就可以获得勋章哦~
  • 实名认证

    通过身份证实名认证
  • 爆料达人

    发帖爆料达人
开启左侧

[动作] 国家宝藏/国家财宝2004.2160p.DSNP.WEB-DL.x265.10bit.HDR.DTS-HD.MA.5.1-19.49GB

  [复制链接]
dolgm 高级首粉 显示全部楼层 发表于 2021-6-30 08:38:20 |阅读模式 打印 上一主题 下一主题

46c26644725d4.png
◎译  名 国度宝躲/国度玉帛/惊天夺宝(港)
◎片  名 National Treasure
◎年  代 2004
◎产  天 好国
◎类  别 行动 / 悬疑 / 惊悚 / 冒险
◎语  行 英语,西班牙语
◎上映日期 2004-11-19(好国)
◎豆瓣评分 7.7/10 from 139130 users
◎豆瓣链接 https://movie.douban.com/subject/1308848/
◎片  少 131 分钟
◎导  演 乔·德特杜巴 Jon Turteltaub
◎编  剧 凶姆·科妇 Jim Kouf / 科马克·韦伯利 Cormac Wibberley / 玛丽安·韦伯利 Marianne Wibberley / 奥伦·艾维妇 Oren Aviv / 查我斯·西格斯 Charles Segars
◎主  演 僧古推斯·凯偶 Nicolas Cage
      黛安·克鲁格 Diane Kruger
      贾斯汀·巴萨 Justin Bartha
      肖恩·宾 Sean Bean
      强·沃特 Jon Voight
      哈威·凯特我 Harvey Keitel
      渴攀里斯托弗·普卢默 Christopher Plummer
      年夜卫·达耶·费舍我 David Dayan Fisher
      斯图华特·芬雷-麦渴攀勒兰 Stewart Finlay-McLennan
      欧勒格·塔克塔罗妇 Oleg Taktarov
      Stephen A. Pope Stephen A. Pope
      安妮·帕里西 Annie Parisse
      马克·佩雷格里诺 Mark Pellegrino
      阿曼德·里斯科 Armando Riesco
      埃里克·金 Erik King
      亨特·戈麦斯 Hunter Gomez
      杰森·厄我斯 Jason Earles
      托僧·德文 Tony Devon
      Antony Alda Antony Alda
      小托僧·卢克 Tony Luke Jr.
      亚历山年夜·埃默特 Alexander Emmert
      张磊 Lei Zhang
      托僧·斯威妇特 Tony Swift
      Michael Russo Michael Russo
      Gavin Black Gavin Black
      詹姆斯·比北匡 James Biberi
      Jonathon Ruckman Jonathon Ruckman
      Terrence Currier Terrence Currier
      Ryan Tygh Ryan Tygh
      路易斯·森瘫メ Louis Centanni
      Jenni Lileikis Jenni Lileikis
      罗恩·坎纳达 Ron Canada
      Deborah Yates Deborah Yates
      阿推北凯·菲我德 Arabella Field
      托僧·萨减斯蒂多一世 Tony Sagastizado I
      罗德僧·J·霍布斯 Rodney J. Hobbs
      罗德·麦渴攀拉兰 Rod McLachlan
      Jackson Bolt Jackson Bolt
      约书亚·比顿 Joshua Biton
       Joe Rampino
      Suzanne Dengel Suzanne Dengel
      Colleen Dengel Colleen Dengel
       Keyon Smith
       Blaze Kelly Coyle
       Sheila Thomas
      渴攀里斯·麦克马林 Chris McMullin
      僧克·本森 Nick Benson
      Neal Orion Neal Orion
      丹僧我·费罗 Daniel Ferro
      Chrismandu Chrismandu
      Kym Cohen Kym Cohen
      Yoshi Jenkins Yoshi Jenkins

◎标  签 僧古推斯·凯偶 | 冒险 | 好国 | 行动 | 好国影戏 | NicolasCage | 国度宝躲 | 2004

◎简  介

  盖茨家属是着名的冒险家家属。本(僧古推斯?凯偶 Nicolas Cage 饰)小时分便得悉了他们家属的一个惊天机密:好国建国时埋躲国度财产的所在便躲正在《自力宣行》中。虽然女桥龌念盖茨家属正在胶葛于国度宝躲,但本仍是取电脑妙手雷利(贾斯汀?巴萨 Justin Bartha 饰)一同开端了觅宝动作。
  
  本狄装宝方案很快堕入凉局。取词宅时,英国富豪伊恩(肖恩?宾 Sean Bean 饰)也盯上了那个宝躲,他派人潜进了好国国度图书找觅《自力宣行》中宝躲的机密并谋害对于本。藏书楼的艾比嘉我专士(戴安?克鲁格 Diane Kruger 饰)得悉了伊恩当闭恶存心后,决计协助本找到国度宝躲……
Video
ID : 1
Format : HEVC
Format/Info : High Efficiency Video Coding
Format profile : Main 10@L5@High
Codec ID : V_MPEGH/ISO/HEVC
Duration : 2 h 11 min
Bit rate : 16.4 Mb/s
Width : 3 840 pixels
Height : 2 160 pixels
Display aspect ratio : 16:9
Frame rate mode : Constant
Frame rate : 23.976 (24000/1001/189150) FPS
Color space : YUV
Chroma subsampling : 4:2:0
Bit depth : 10 bits
Bits/(Pixel*Frame) : 0.083
Stream size : 15.0 GiB (77%)
Default : Yes
Forced : No
Color range : Limited
Color primaries : BT.2020
Transfer characteristics : PQ
Matrix coefficients : BT.2020 non-constant

Audio #1
ID : 2
Format : DTS XLL
Format/Info : Digital Theater Systems
Commercial name : DTS-HD Master Audio
Codec ID : A_DTS
Duration : 2 h 11 min
Bit rate mode : Variable
Bit rate : 4 077 kb/s
Channel(s) : 6 channels
Channel layout : C L R Ls Rs LFE
Sampling rate : 48.0 kHz
Frame rate : 93.750 FPS (512 SPF)
Bit depth : 24 bits
Compression mode : Lossless
Delay relative to video : 5 ms
Stream size : 3.73 GiB (19%)
Title : DTS-HD MA 5.1
Language : English
Default : Yes
Forced : No

Audio #2
ID : 3
Format : E-AC-3 JOC
Format/Info : Enhanced AC-3 with Joint Object Coding
Commercial name : Dolby Digital Plus with Dolby Atmos
Codec ID : A_EAC3
Duration : 2 h 11 min
Bit rate mode : Constant
Bit rate : 768 kb/s
Channel(s) : 6 channels
Channel layout : L R C LFE Ls Rs
Sampling rate : 48.0 kHz
Frame rate : 31.250 FPS (1536 SPF)
Compression mode : Lossy
Stream size : 720 MiB (4%)
Title : DDP 5.1 Atmos
Language : English
Service kind : Complete Main
Default : No
Forced : No
Complexity index : 16
Number of dynamic objects : 15
Bed channel count : 1 channel
Bed channel configuration : LFE

Text #1
ID : 4
Format : UTF-8
Codec ID : S_TEXT/UTF8
Codec ID/Info : UTF-8 Plain Text
Duration : 2 h 1 min
Bit rate : 60 b/s
Count of elements : 1805
Stream size : 53.8 KiB (0%)
Title : SDH
Language : English
Default : Yes
Forced : No

Text #2
ID : 5
Format : UTF-8
Codec ID : S_TEXT/UTF8
Codec ID/Info : UTF-8 Plain Text
Duration : 2 h 0 min
Bit rate : 53 b/s
Count of elements : 1466
Stream size : 47.3 KiB (0%)
Title : Latin America
Language : Spanish
Default : No
Forced : No

Text #3
ID : 6
Format : UTF-8
Codec ID : S_TEXT/UTF8
Codec ID/Info : UTF-8 Plain Text
Duration : 2 h 0 min
Bit rate : 46 b/s
Count of elements : 1447
Stream size : 40.8 KiB (0%)
Title : Canadian
Language : French
Default : No
Forced : No

Text #4
ID : 7
Format : UTF-8
Codec ID : S_TEXT/UTF8
Codec ID/Info : UTF-8 Plain Text
Duration : 2 h 0 min
Bit rate : 41 b/s
Count of elements : 1090
Stream size : 36.2 KiB (0%)
Language : Dutch
Default : No
Forced : No

Menu
00:00:00.000 : The Legend of the Treasure
00:06:36.229 : The Charlotte
00:22:20.339 : Meeting with Dr. Chase
00:28:49.269 : Making a Plan
00:31:15.290 : The Setup
00:35:44.517 : The Gala
00:45:52.667 : Getting Found Out
00:54:27.973 : We Need Those Letters
01:01:07.706 : Examining the Document
01:07:02.685 : Philadelphia
01:16:54.610 : The Ocular Device
01:24:06.458 : Ian Has the Map
01:28:21.671 : The Uss Intrepid
01:34:20.822 : Making a Deal with Ian
01:38:31.989 : Beneath Parkington Lane
01:49:42.576 : Ian Leaves Them Behind
01:53:26.383 : Could It Really Be That Simple?
01:57:22.452 : Somebody Has to Go to Prison
02:01:43.379 : End Credits





旅客,假如您要检察本帖躲藏内容请复兴




上一篇:记忆切割[国语音轨]2021.WEB-DL.4K.H265.DDP.5.1-Dave 10.22GB
下一篇:你的婚礼[国语音轨]2021.2160p.WEB-DL.DD5.1.H265-13.77GB

精彩评论14

无锋_UHNIn 首发新人 显示全部楼层 发表于 2021-6-30 09:37:53
楼主辛苦了,谢谢首发之家!!
haibo1hao 首发之星 显示全部楼层 发表于 2021-6-30 09:44:36
楼主辛苦了,谢谢首发之家!!
哥丶心狠痛 高级首粉 显示全部楼层 发表于 2021-6-30 10:29:14
楼主辛苦了,谢谢首发之家!!
vlianj 初来首发 显示全部楼层 发表于 2021-6-30 19:33:49
感恩分享,感恩平台
尖椒牛柳 捐助会员 显示全部楼层 发表于 2021-6-30 19:56:29
感谢感动分享,感谢感动!
010101010 首发熟人 显示全部楼层 发表于 2021-6-30 21:17:32
谢谢楼主的分享
我喜欢
贺烨_IkmnN 首发熟人 显示全部楼层 发表于 2021-6-30 22:52:27
楼主辛苦了,谢谢首发之家!!
hzmagix 高级首粉 显示全部楼层 发表于 2021-7-1 15:09:20
没有字幕吧
放开那女孩 首发之星 显示全部楼层 发表于 2021-7-1 21:18:37
我只是路过打酱油的
您需要登录后才可以回帖 登录 | 立即注册 用百度帐号登录

本版积分规则

首发之家社区成立于2011年3月,内容涉及3C家电、数码生活智能电视,股票软件,4K,体育,软件,教育,游戏等资源指标公式论坛。
  • 官方手机版

  • 抖音号

  • 商务合作

  • Powered by Discuz! X3.4 | Copyright © 2011-2021, Tencent Cloud. | 首发之家社区
  • |网站地图 | mp4d@qq.com|小黑屋|手机版|