返回顶部
  • 发帖数1648
  • 粉丝19

此人很懒,什么也没有留下

  • 最佳新人

  • 活跃会员

    经常参与各类话题的讨论,发帖内容较有主见
  • 热心会员

    经常帮助其他会员答疑
  • 灌水之王

    经常在论坛发帖,且发帖量较大
  • 社区劳模

    长期对论坛的繁荣而不断努力,或发帖主题数500以上
  • 终身成就

    为论坛做出突出贡献的会员
  • QQ绑定

    QQ绑定会员
  • 明星会员

    在论坛有很高知名度会员
  • 沙发达人

    抢沙总数达到100
  • 光悦帅哥

    上传了自己真人秀照片就可以获得勋章哦~
  • 实名认证

    通过身份证实名认证
  • 爆料达人

    发帖爆料达人
开启左侧

[喜剧] 明天会好的.2021.V2.2160p.WEB-DL.H265.DDP5.1-OurTV 10.84GB

[复制链接]
dolgm 高级首粉 显示全部楼层 发表于 2021-6-30 08:33:22 |阅读模式 打印 上一主题 下一主题
p2638146404.jpg

◎译  名 来日诰日会好的 / 西晒 / Glowing Dusk / Tomorrow Will Be Fine
◎年  代 2021
◎产  天 止您年夜陆
◎类  别 笑剧 / 恋爱
◎语  行 汉语一般话
◎上映日期 2021-04-02(止您年夜陆)
◎IMDb链接 https://www.imdb.com/title/tt10850034/
◎豆瓣评分 4.9/10 (15436人评价)
◎豆瓣链接 https://movie.douban.com/subject/35165314/
◎片  少 101分钟
◎导  演 袁媛 Yuan Yuan (id:1348428)
◎编  剧 袁媛 Yuan Yuan (id:1348428)
◎演  员 姜劳磊 Papi Jiang (id:1366735)
      张超 Juck Zhang (id:1325810)
      吴玉芳 Yufang Wu (id:1301329)
      黑客 White. K (id:1332932)
      周偶朱 Qimo Zhou (id:1419769)
      小鹿 Veronica (id:1419768)
      许歌 Ge Xu (id:1318142)
      陆忠 Zhong Lu (id:1336601)
      李苒苒 Ran-ran Li (id:1274202)
      张皓然 Haoran Zhang (id:1329243)
      葛佳佳 Jiajia Ge (id:1429633)
      陈安 Francesco Chen (id:1433351)
      曦子 Xizi (id:1377310)
      寄┝柯 Zhangke Jia (id:1274261)
      袁媛 Yuan Yuan (id:1348428)
      孙永焕 Yonghuan Sun (id:1426832)
      任晓妍 Xiaoyan Ren (id:1404565)
      应萝佳 Luojia Ying (id:1419205)

◎标  签 papi酱 / 文艺 / 国产影戏 / 2021 / 影戏 / 张超 / 止您 / 动人

◎简  介
  那是一部十分实在的恋爱笑剧影戏,每一个人皆能从中找到本人的雍谟。
年远30岁但一事无秤弈女死萧渝(papi酱饰)正在阅历被卷铺盖、开租闺蜜忽然颁布发表要丢弃她住进男朋友屋子后,搬进了五环中一个粗陋的出租屋内,那是她正在那个年夜都会第九次搬场。
迫于生存当濒渝决议来剧组吭哟时机,为了省钱把屋子短租给了一个一样失意的小歌脚季家(张超饰)。但是很快萧渝忧剧组解雇,只能提早回京可季家的租期已谦,萧渝竟成两舫收客。两人从困顿到拆伙过日子,糊口愈来愈甘美,发作了很多哭笑不得的工作……糊口老是一天鸡毛,但火顺总会已往,信赖来日诰日会好的!
General
Complete name : 来日诰日会好的.Glowing.Dusk.2021.V2.2160p.WEB-DL.H265.DDP5.1-OurTV.mp4
Format : MPEG-4
Format profile : Base Media
Codec ID : isom (isom/iso2/mp41)
File size : 10.8 GiB
Duration : 1 h 41 min
Overall bit rate : 15.3 Mb/s
Writing application : Lavf58.19.100

Video
ID : 1
Format : HEVC
Format/Info : High Efficiency Video Coding
Format profile : Main@L5@High
Codec ID : hev1
Codec ID/Info : High Efficiency Video Coding
Duration : 1 h 41 min
Bit rate : 14.9 Mb/s
Width : 4 096 pixels
Height : 1 706 pixels
Display aspect ratio : 2.40:1
Original display aspect ratio : 2.40:1
Frame rate mode : Variable
Frame rate : 25.000 FPS
Minimum frame rate : 25.000 FPS
Maximum frame rate : 90 000.000 FPS
Color space : YUV
Chroma subsampling : 4:2:0
Bit depth : 8 bits
Bits/(Pixel*Frame) : 0.085
Stream size : 10.6 GiB (97%)
Codec configuration box : hvcC

Audio #1
ID : 2
Format : E-AC-3
Format/Info : Enhanced AC-3
Commercial name : Dolby Digital Plus
Codec ID : ec-3
Duration : 1 h 41 min
Bit rate mode : Constant
Bit rate : 256 kb/s
Channel(s) : 6 channels
Channel layout : L R C LFE Ls Rs
Sampling rate : 48.0 kHz
Frame rate : 31.250 FPS (1536 SPF)
Compression mode : Lossy
Stream size : 186 MiB (2%)
Title : 国语DDP5.1
Language : Chinese
Service kind : Complete Main
Default : Yes
Alternate group : 1

Audio #2
ID : 3
Format : AAC LC
Format/Info : Advanced Audio Codec Low Complexity
Codec ID : mp4a-40-2
Duration : 1 h 41 min
Bit rate mode : Constant
Bit rate : 125 kb/s
Channel(s) : 2 channels
Channel layout : L R
Sampling rate : 48.0 kHz
Frame rate : 46.875 FPS (1024 SPF)
Compression mode : Lossy
Stream size : 91.0 MiB (1%)
Title : 国语AAC2.0
Language : Chinese
Default : No
Alternate group : 1



旅客,假如您要检察本帖躲藏内容请复兴




上一篇:悬崖之上[国语音轨].2021.V2.2160p.WEB-DL.DD5.1.H265-14.65GB
下一篇:记忆切割[国语音轨]2021.WEB-DL.4K.H265.DDP.5.1-Dave 10.22GB

精彩评论9

seaman_w 首发熟人 显示全部楼层 发表于 2021-6-30 08:44:06
楼主辛苦了,谢谢首发之家!!
haibo1hao 首发之星 显示全部楼层 发表于 2021-6-30 09:47:02
楼主辛苦了,谢谢首发之家!!
刘宇涛 首发熟人 显示全部楼层 发表于 2021-6-30 10:20:44
这个好新   支持
哥丶心狠痛 高级首粉 显示全部楼层 发表于 2021-6-30 10:29:51
楼主辛苦了,谢谢首发之家!!
xuw 首发之星 显示全部楼层 发表于 2021-6-30 19:51:44
楼主辛苦了,谢谢首发之家!!
一达 首发之星 显示全部楼层 发表于 2021-7-1 13:54:00
首发之家不能没有像楼主这样的人才!
暴风影咖 首发熟人 显示全部楼层 发表于 2021-7-1 18:11:43
谢谢楼主分享
wx_BrI5Y3wH 捐助会员 显示全部楼层 发表于 2021-7-1 21:17:36
阿斯顿发送到发送到发
wx_BrI5Y3wH 捐助会员 显示全部楼层 发表于 2021-7-1 21:17:37
阿斯顿发送到发送到发
您需要登录后才可以回帖 登录 | 立即注册 用百度帐号登录

本版积分规则

首发之家社区成立于2011年3月,内容涉及3C家电、数码生活智能电视,股票软件,4K,体育,软件,教育,游戏等资源指标公式论坛。
  • 官方手机版

  • 抖音号

  • 商务合作

  • Powered by Discuz! X3.4 | Copyright © 2011-2021, Tencent Cloud. | 首发之家社区
  • |网站地图 | mp4d@qq.com|小黑屋|手机版|