返回顶部
  • 发帖数1648
  • 粉丝19

此人很懒,什么也没有留下

  • 最佳新人

  • 活跃会员

    经常参与各类话题的讨论,发帖内容较有主见
  • 热心会员

    经常帮助其他会员答疑
  • 灌水之王

    经常在论坛发帖,且发帖量较大
  • 社区劳模

    长期对论坛的繁荣而不断努力,或发帖主题数500以上
  • 终身成就

    为论坛做出突出贡献的会员
  • QQ绑定

    QQ绑定会员
  • 明星会员

    在论坛有很高知名度会员
  • 沙发达人

    抢沙总数达到100
  • 光悦帅哥

    上传了自己真人秀照片就可以获得勋章哦~
  • 实名认证

    通过身份证实名认证
  • 爆料达人

    发帖爆料达人
开启左侧

[动作] 悬崖之上[国语音轨].2021.V2.2160p.WEB-DL.DD5.1.H265-14.65GB

    [复制链接]
dolgm 高级首粉 显示全部楼层 发表于 2021-6-30 08:32:30 |阅读模式 打印 上一主题 下一主题
ee70f421e2c6b15f9cfb4d4b73b996ff.jpg
◎译  名 绝壁之上 / Impasse / Cliff Walkers
◎年  代 2021
◎产  天 止您年夜陆 / 止您喷鼻港
◎类  别 剧情 / 行动 / 悬疑
◎语  行 汉语一般话 / 英语 / 俄语
◎上映日期 2021-04-30(止您年夜陆)
◎IMDb链接 https://www.imdb.com/title/tt11448076/
◎豆瓣评分 7.6/10 (423042人评价)
◎豆瓣链接 https://movie.douban.com/subject/32493124/
◎片  少 120分钟
◎导  演 张艺谋 Yimou Zhang (id:1054398)
◎编  剧 齐怯先 Yongxian Quan (id:1318171)
      张艺谋 Yimou Zhang (id:1054398)
      潘仍然 Yiran Pan (id:1405343)
◎演  员 张译 Yi Zhang (id:1274761)
      于战伟 Hewei Yu (id:1313742)
      秦海璐 Hailu Qin (id:1274437)
      墨亚文 Yawen Zhu (id:1312699)
      刘浩存 Haocun Liu (id:1410267)
      倪年夜白 Dahong Ni (id:1274306)
      李乃文 Naiwen Li (id:1274530)
      周晓凡是 Xiaofan Zhou (id:1442404)
      雷佳音 Jiayin Lei (id:1312940)
      沙溢 Yi Sha (id:1274648)
      韩昊霖 Haolin Han (id:1396506)
      安冬 Dong An (id:1373336)
      逯少恩 Chang'en Lu (id:1325615)
      冯瓅 Li Feng (id:1319504)
      黑恩 En Bai (id:1327332)
      启新天 Xintian Feng (id:1451203)
      齐羽嘉 Yujia Qi (id:1416332)
      丁子迪 Zidi Ding (id:1365828)
      芮丹僧 Danny Ray (id:1391362)
      紧天硕 Tianshuo Song (id:1403108)
      马睿瀚 Ruihan Ma (id:1390556)
      纪焕专 Rock Ji (id:1321846)
      王乃训 Naixun Wang (id:1386026)
      陈永胜 Yongsheng Chen (id:1436031)
      焦宏奋 Hongfen Jiao (id:1412277)
      杨受成 Albert Yeung (id:1313455)
      庞丽薇 Liwei Pang (id:1406322)
      梁琳 Lin Liang (id:1400716)
      杨政龙 Zhenglong Yang (id:1442412)
      梁郁 Yu Liang (id:1442414)
      许建海 Jianhai Xu (id:1384186)
      王垂林 Chuilin Wang (id:1446629)
      马寅 Yin Ma (id:1402444)
      于晓楠 Xiaonan Yu (id:1417264)
      李捷 Jie Li (id:1403835)
      彭叫宇 Mingyu Peng (id:1446113)
      赵海乡 Haicheng Zhao (id:1392082)
      邵剑春 Kim-Chau Shiu (id:1413263)
      王隽 (id:1448949)
      叶蓁蓁 Zhenzhen Ye (id:1453514)
      曹永旭 Yeong-wook Jo (id:1287735)
      周深 Shen Zhou (id:1366895)
      赵小丁 Xiaoding Zhao (id:1274347)
      赵隐章 Xianzhang Zhao (id:1406352)
      李永一 Yongyi Li (id:1379294)
      付璐璐 Lulu Fu (id:1401800)
      林木 Lin Mu (id:1325046)
      李行 Yan Li (id:1456204)
      陈敏正 Minzheng Chen (id:1346314)
      梁郁 Yu Liang (id:1442414)
      任茂成 Maocheng Ren (id:1401816)
      杨江 Jiang Yang (id:1351381)
      赵楠 Nan Zhao (id:1325307)
      王星会 Samson Sing Wun Wong (id:1401244)
      郑斗洪 Doo-hong Jung (id:1109833)

◎标  签 谍战 / 张艺谋 / 悬疑 / 于战伟 / 剧情 / 止您年夜陆 / 2021 / 刘浩存

◎简  介
  沙吕纪三十年月,四位曾正在苏连接受特训的共产党奸细构成使命小队,返国施行代号为“黑特推”的机密动作。因为叛徒的出售,他们从跳伞下降的第一刻起,便已质茼于仇敌布下的坎阱当中。同道可否脱身,使命可否完成,雪不断下,坐于“绝壁之擅鼙的动作小组面对严重磨练。
General
Unique ID : 138504356672714203968643376462148793794 (0x6832F802E906C2E299AF61695039F5C2)
Complete name : 绝壁之上.Cliff.Walkers.2021.V2.2160p.WEB-DL.DD5.1.H265-HDSWEB.mkv
Format : Matroska
Format version : Version 4
File size : 14.6 GiB
Duration : 2 h 0 min
Overall bit rate : 17.4 Mb/s
Encoded date : UTC 2021-06-24 06:47:52
Writing application : mkvmerge v40.0.0 ('Old Town Road + Pony') 64-bit
Writing library : libebml v1.3.9 + libmatroska v1.5.2

Video
ID : 1
Format : HEVC
Format/Info : High Efficiency Video Coding
Format profile : Main@L5@Main
Codec ID : V_MPEGH/ISO/HEVC
Duration : 2 h 0 min
Bit rate : 17.0 Mb/s
Width : 3 840 pixels
Height : 1 616 pixels
Display aspect ratio : 2.40:1
Frame rate mode : Constant
Frame rate : 24.000 FPS
Color space : YUV
Chroma subsampling : 4:2:0
Bit depth : 8 bits
Bits/(Pixel*Frame) : 0.114
Stream size : 14.3 GiB (97%)
Default : Yes
Forced : No

Audio
ID : 2
Format : E-AC-3 JOC
Format/Info : Enhanced AC-3 with Joint Object Coding
Commercial name : Dolby Digital Plus with Dolby Atmos
Codec ID : A_EAC3
Duration : 2 h 0 min
Bit rate mode : Constant
Bit rate : 448 kb/s
Channel(s) : 6 channels
Channel layout : L R C LFE Ls Rs
Sampling rate : 48.0 kHz
Frame rate : 31.250 FPS (1536 SPF)
Compression mode : Lossy
Stream size : 386 MiB (3%)
Language : Chinese
Service kind : Complete Main
Default : Yes
Forced : No
Complexity index : 16
Number of dynamic objects : 15
Bed channel count : 1 channel
Bed channel configuration : LFE

旅客,假如您要检察本帖躲藏内容请复兴




上一篇:冰雪11天.2012.WEB-DL.4K.HEVC.AAC-CHDWEB 11.42GB
下一篇:明天会好的.2021.V2.2160p.WEB-DL.H265.DDP5.1-OurTV 10.84GB

精彩评论54

卓越非凡 首发新人 显示全部楼层 发表于 2021-6-30 08:36:08
第一第一,尝鲜啊
seaman_w 首发熟人 显示全部楼层 发表于 2021-6-30 08:43:03
楼主辛苦了,谢谢首发之家!!
无锋_UHNIn 首发新人 显示全部楼层 发表于 2021-6-30 09:37:09
楼主辛苦了,谢谢首发之家!!
haibo1hao 首发之星 显示全部楼层 发表于 2021-6-30 09:47:20
楼主辛苦了,谢谢首发之家!!
哥丶心狠痛 高级首粉 显示全部楼层 发表于 2021-6-30 10:30:33
楼主辛苦了,谢谢首发之家!!
yxs9999 首发之星 显示全部楼层 发表于 2021-6-30 14:10:58
楼主辛苦了,谢谢首发之家!!
新起点2017 铁杆首粉 显示全部楼层 发表于 2021-6-30 15:50:27
楼主辛苦了,谢谢首发之家!!
wmh_aI9Ix 首发新人 显示全部楼层 发表于 2021-6-30 17:31:51
感谢楼主,感谢首发
阿秦姑娘 初来首发 显示全部楼层 发表于 2021-6-30 18:00:54
找了好久ohhhhhh
您需要登录后才可以回帖 登录 | 立即注册 用百度帐号登录

本版积分规则

首发之家社区成立于2011年3月,内容涉及3C家电、数码生活智能电视,股票软件,4K,体育,软件,教育,游戏等资源指标公式论坛。
  • 官方手机版

  • 抖音号

  • 商务合作

  • Powered by Discuz! X3.4 | Copyright © 2011-2021, Tencent Cloud. | 首发之家社区
  • |网站地图 | mp4d@qq.com|小黑屋|手机版|