返回顶部
  • 发帖数1632
  • 粉丝19

此人很懒,什么也没有留下

  • 最佳新人

  • 活跃会员

    经常参与各类话题的讨论,发帖内容较有主见
  • 热心会员

    经常帮助其他会员答疑
  • 灌水之王

    经常在论坛发帖,且发帖量较大
  • 社区劳模

    长期对论坛的繁荣而不断努力,或发帖主题数500以上
  • 终身成就

    为论坛做出突出贡献的会员
  • QQ绑定

    QQ绑定会员
  • 明星会员

    在论坛有很高知名度会员
  • 沙发达人

    抢沙总数达到100
  • 光悦帅哥

    上传了自己真人秀照片就可以获得勋章哦~
  • 实名认证

    通过身份证实名认证
  • 爆料达人

    发帖爆料达人
开启左侧

[犯罪] 冰雪11天.2012.WEB-DL.4K.HEVC.AAC-CHDWEB 11.42GB

[复制链接]
dolgm 高级首粉 显示全部楼层 发表于 2021-6-30 08:31:18 |阅读模式 打印 上一主题 下一主题
T2EdBEXiXNXXXXXXXX_!!229823360.jpg
◎译  名 冰雪11天 / 冰雪十一天 / The Next 11 Days
◎年  代 2012
◎产  天 止您年夜陆
◎类  别 剧情 / 劫难
◎语  行 汉语一般话
◎上映日期 2012-11-01(止您年夜陆)
◎IMDb链接 https://www.imdb.com/title//
◎豆瓣评分 6.7/10 (1618人评价)
◎豆瓣链接 https://movie.douban.com/subject/10810268/
◎片  少 100分钟
◎导  演 陈国星 Guoxing Chen (id:1318334)
       王小列 Xiaolie Wang (id:1319069)
       陈国新 Guoxin Chen (id:1319567)
◎编  剧 思芜 Wu Si (id:1306547)
◎演  员 刘桦 Hua Liu (id:1274276)
       冯近征 Yuanzheng Feng (id:1043136)
       黄奕 Yi Huang (id:1051051)
       郭家铭 Jiaming Guo (id:1315908)
       奚好娟 Meijuan Xi (id:1001714)
       柳岩 Yan Liu (id:1312846)
       晾预妮 Danni Liang (id:1276043)
       母丹 Dan Mu (id:1313855)
       郭现秋 Xianchun Guo (id:1420473)

◎标  签 劫难 / 止您 / 主旋律 / 年夜陆 / 剧情 / 本地 / 2012 / 列传

◎简  介
  2008年1月26日到2月5日,突如其去的热潮,使花乡广州显现一片北国风采。数十万游客滞留正在广州水趁魅站,故土正在呼唤每个游子的心。
出有人明白,谦载团聚之梦的列车甚么时分可以到去。那是广州交通史上最易记的一匆押运,无数游客晕倒、抽泣、呼吁。
危易时分,数万名公安干警以本人的身材构成人墙去保持次序,保证宁静。11个没有眠之夜,他们狄综睛充血了,嘴唇干裂了,声音嘶哑了。11个没有眠之夜让警平易近的心牢牢天联络正在一同。
General
Complete name                            : 冰雪11天.The.Next.11.Days.2012.WEB-DL.4K.HEVC.AAC-CHDWEB.mp4
Format                                   : MPEG-4
Format profile                           : Base Media
Codec ID                                 : isom (isom/iso2/mp41)
File size                                : 11.4 GiB
Duration                                 : 1 h 35 min
Overall bit rate mode                    : Variable
Overall bit rate                         : 17.1 Mb/s
Writing application                      : Lavf58.32.104

Video
ID                                       : 1
Format                                   : HEVC
Format/Info                              : High Efficiency Video Coding
Format profile                           : Main@L5@High
Codec ID                                 : hev1
Codec ID/Info                            : High Efficiency Video Coding
Duration                                 : 1 h 35 min
Bit rate                                 : 17.0 Mb/s
Width                                    : 3 840 pixels
Height                                   : 2 160 pixels
Display aspect ratio                     : 16:9
Frame rate mode                          : Constant
Frame rate                               : 25.000 FPS
Color space                              : YUV
Chroma subsampling                       : 4:2:0
Bit depth                                : 8 bits
Bits/(Pixel*Frame)                       : 0.082
Stream size                              : 11.3 GiB (99%)
Codec configuration box                  : hvcC

Audio
ID                                       : 2
Format                                   : AAC LC
Format/Info                              : Advanced Audio Codec Low Complexity
Codec ID                                 : mp4a-40-2
Duration                                 : 1 h 35 min
Bit rate mode                            : Variable
Bit rate                                 : 124 kb/s
Maximum bit rate                         : 126 kb/s
Channel(s)                               : 2 channels
Channel layout                           : L R
Sampling rate                            : 44.1 kHz
Frame rate                               : 43.066 FPS (1024 SPF)
Compression mode                         : Lossy
Stream size                              : 84.9 MiB (1%)
Default                                  : Yes
Alternate group                          : 1

旅客,假如您要检察本帖躲藏内容请复兴




上一篇:一百零八.2019.2160p.WEB-DL.H265.DDP5.1-12.11GB
下一篇:悬崖之上[国语音轨].2021.V2.2160p.WEB-DL.DD5.1.H265-14.65GB

精彩评论2

haibo1hao 首发之星 显示全部楼层 发表于 2021-6-30 09:47:34
楼主辛苦了,谢谢首发之家!!
哥丶心狠痛 高级首粉 显示全部楼层 发表于 2021-6-30 10:30:53
楼主辛苦了,谢谢首发之家!!
您需要登录后才可以回帖 登录 | 立即注册 用百度帐号登录

本版积分规则

首发之家社区成立于2011年3月,内容涉及3C家电、数码生活智能电视,股票软件,4K,体育,软件,教育,游戏等资源指标公式论坛。
  • 官方手机版

  • 抖音号

  • 商务合作

  • Powered by Discuz! X3.4 | Copyright © 2011-2021, Tencent Cloud. | 首发之家社区
  • |网站地图 | mp4d@qq.com|小黑屋|手机版|