返回顶部
  • 发帖数1632
  • 粉丝19

此人很懒,什么也没有留下

  • 最佳新人

  • 活跃会员

    经常参与各类话题的讨论,发帖内容较有主见
  • 热心会员

    经常帮助其他会员答疑
  • 灌水之王

    经常在论坛发帖,且发帖量较大
  • 社区劳模

    长期对论坛的繁荣而不断努力,或发帖主题数500以上
  • 终身成就

    为论坛做出突出贡献的会员
  • QQ绑定

    QQ绑定会员
  • 明星会员

    在论坛有很高知名度会员
  • 沙发达人

    抢沙总数达到100
  • 光悦帅哥

    上传了自己真人秀照片就可以获得勋章哦~
  • 实名认证

    通过身份证实名认证
  • 爆料达人

    发帖爆料达人
开启左侧

[剧情] 一百零八.2019.2160p.WEB-DL.H265.DDP5.1-12.11GB

[复制链接]
dolgm 高级首粉 显示全部楼层 发表于 2021-6-30 08:29:51 |阅读模式 打印 上一主题 下一主题
d2b452135a30d5fa588f78b76486b475.jpg

◎译  名 一百整八 / Wonder In The Temple
◎年  代 2019
◎产  天 止您年夜陆
◎类  别 剧情 / 恋爱
◎语  行 汉语一般话
◎上映日期 2021-05-15(止您年夜陆) / 2019-10-16(丝绸之路国际影戏节)
◎IMDb链接 https://www.imdb.com/title/tt10848020/
◎豆瓣评分 5.4/10 (4886人评价)
◎豆瓣链接 https://movie.douban.com/subject/30214261/
◎片  少 108分钟
◎导  演 孔嘉悲 Jiahuan Kong (id:1418267)
◎编  剧 孔嘉悲 Jiahuan Kong (id:1418267)
◎演  员 吕星斗 Xingchen Lü (id:1330093)
      董凡是 Fan Dong (id:1372710)
      下明 Liang Gao (id:1418268)
      吴京 Jing Wu (id:1000525)
      照宇 Zhao Yu (id:1421284)
      沈晨杰 Chaojie Shen (id:1421285)
      蒋林燕 Linyan Jiang (id:1346433)
      王真 Shi Wang (id:1421286)
      王婧 Jing Wang (id:1402783)
      陶正东 Zhengdong Tao (id:1421287)
      刘正东 Zhengdong Liu (id:1421288)
      李尖兵 Shaobing Li (id:1421289)
      周静 Jing Zhou (id:1421291)
      魏铭 Ming Wei (id:1421290)
      冯祎 Feng Yi (id:1456453)
      廖小蝶 Xiaodie Liao (id:1421292)
      苏德秀 Dexiu Su (id:1421293)
      下凤 Feng Gao (id:1421294)
      褚海辰 Haichen Chu (id:1368466)
      万磊 Lei Wan (id:1418576)
      张越 Yue Zhang (id:1418589)

◎标  签 汶川地动 / 108罗赫睫 / 劫难 / 温情 / 吴京 / 止您 / 爱 / 影戏

◎简  介
  影戏报告裂扭唱歌脚肖兰(吕星斗饰)分开成皆前去什邡,正在遭受男朋友陆天(下明饰)的闭梅十颓矬决议引产,懊丧之时突逢地动打击。医护职员尽力庇护齐院妊妇告急转移至宁静地区罗汉寺,自此寺院变产院,禅房变产房。那时期,肖兰亲历了劫难中兽性极限的扯破取应战......
General
Complete name : 一百整八.Wonder.In.The.Temple.2019.2160p.WEB-DL.H265.DDP5.1-OurTV.mp4
Format : MPEG-4
Format profile : Base Media
Codec ID : isom (isom/iso2/mp41)
File size : 12.1 GiB
Duration : 1 h 44 min
Overall bit rate : 16.7 Mb/s
Writing application : Lavf58.19.100

Video
ID : 1
Format : HEVC
Format/Info : High Efficiency Video Coding
Format profile : Main@L5@Main
Codec ID : hev1
Codec ID/Info : High Efficiency Video Coding
Duration : 1 h 44 min
Bit rate : 16.0 Mb/s
Width : 3 840 pixels
Height : 1 920 pixels
Display aspect ratio : 2.000
Frame rate mode : Constant
Frame rate : 24.000 FPS
Color space : YUV
Chroma subsampling : 4:2:0
Bit depth : 8 bits
Bits/(Pixel*Frame) : 0.090
Stream size : 11.6 GiB (96%)
Codec configuration box : hvcC

Audio #1
ID : 2
Format : E-AC-3
Format/Info : Enhanced AC-3
Commercial name : Dolby Digital Plus
Codec ID : ec-3
Duration : 1 h 44 min
Bit rate mode : Constant
Bit rate : 256 kb/s
Channel(s) : 6 channels
Channel layout : L R C LFE Ls Rs
Sampling rate : 48.0 kHz
Frame rate : 31.250 FPS (1536 SPF)
Compression mode : Lossy
Stream size : 190 MiB (2%)
Title : 四川圆行DDP5.1
Language : Chinese
Service kind : Complete Main
Default : Yes
Alternate group : 1

Audio #2
ID : 3
Format : E-AC-3
Format/Info : Enhanced AC-3
Commercial name : Dolby Digital Plus
Codec ID : ec-3
Duration : 1 h 44 min
Bit rate mode : Constant
Bit rate : 256 kb/s
Channel(s) : 2 channels
Channel layout : L R
Sampling rate : 48.0 kHz
Frame rate : 31.250 FPS (1536 SPF)
Compression mode : Lossy
Stream size : 190 MiB (2%)
Title : 四川圆行DDP2.0
Language : Chinese
Service kind : Complete Main
Default : No
Alternate group : 1

Audio #3
ID : 4
Format : AAC LC
Format/Info : Advanced Audio Codec Low Complexity
Codec ID : mp4a-40-2
Duration : 1 h 44 min
Bit rate mode : Constant
Bit rate : 192 kb/s
Channel(s) : 2 channels
Channel layout : L R
Sampling rate : 44.1 kHz
Frame rate : 43.066 FPS (1024 SPF)
Compression mode : Lossy
Stream size : 141 MiB (1%)
Title : 四川圆行AAC2.0
Language : Chinese
Default : No
Alternate group : 1

旅客,假如您要检察本帖躲藏内容请复兴




上一篇:边缘状态/流亡边界.2020.2160p.WEB-DL.x265.10bit.SDR.DD5.1-15.38GB
下一篇:冰雪11天.2012.WEB-DL.4K.HEVC.AAC-CHDWEB 11.42GB

精彩评论5

haibo1hao 首发之星 显示全部楼层 发表于 2021-6-30 09:47:46
楼主辛苦了,谢谢首发之家!!
哥丶心狠痛 高级首粉 显示全部楼层 发表于 2021-6-30 10:31:06
楼主辛苦了,谢谢首发之家!!
Xiao~ming 初来首发 显示全部楼层 发表于 2021-7-26 16:16:17
RE: 一百零八.2019.2160p.WEB-DL.H265.DDP5.1-12.11GB [[url=]修[/url]
石头钝剑 捐助会员 显示全部楼层 发表于 2021-7-28 09:48:23
我看不错噢,感谢首发之荚丁
A.JohnZhu 初来首发 显示全部楼层 发表于 2021-7-28 09:54:35
谢谢分享,收下了
您需要登录后才可以回帖 登录 | 立即注册 用百度帐号登录

本版积分规则

首发之家社区成立于2011年3月,内容涉及3C家电、数码生活智能电视,股票软件,4K,体育,软件,教育,游戏等资源指标公式论坛。
  • 官方手机版

  • 抖音号

  • 商务合作

  • Powered by Discuz! X3.4 | Copyright © 2011-2021, Tencent Cloud. | 首发之家社区
  • |网站地图 | mp4d@qq.com|小黑屋|手机版|