返回顶部
  • 发帖数3009
  • 粉丝35

此人很懒,什么也没有留下

  • 最佳新人

  • 活跃会员

    经常参与各类话题的讨论,发帖内容较有主见
  • 热心会员

    经常帮助其他会员答疑
  • 灌水之王

    经常在论坛发帖,且发帖量较大
  • 社区劳模

    长期对论坛的繁荣而不断努力,或发帖主题数500以上
  • 终身成就

    为论坛做出突出贡献的会员
  • 明星会员

    在论坛有很高知名度会员
  • 爆料达人

    发帖爆料达人
开启左侧

[剧情] [2016][霓虹恶魔][BD-MKV/18.59GB][英语音轨+中文字幕][4K-2160P]

[复制链接]
shizhijie 狂热首粉 显示全部楼层 发表于 2021-6-28 08:06:24 |阅读模式 打印 上一主题 下一主题
p2361572046.jpg

◎译  名 霓虹恶魔 / Neon démon
◎片  名 The Neon Demon
◎年  代 2016
◎产  天 法国 / 丹麦 / 好国
◎类  别 剧情 / 惊悚
◎语  行 英语
◎上映日期 2016-05-20(戛纳影戏节) / 2016-06-08(法国) / 2016-06-24(好国)
◎IMDb链接 https://www.imdb.com/title/tt1974419/
◎豆瓣评分 6.3/10 (21526人评价)
◎豆瓣链接 https://movie.douban.com/subject/6860147/
◎片  少 117分钟
◎导  演 僧古推斯·温丁·雷弗恩 Nicolas Winding Refn (id:1027335)
◎编  剧 僧古推斯·温丁·雷弗恩 Nicolas Winding Refn (id:1027335)
      波莉·斯滕纳姆 Polly Stenham (id:1357687)
      玛丽·罗斯 Mary Laws (id:1357686)
◎演  员 艾丽·范宁 Elle Fanning (id:1025133)
      阿庇毪丽 Abbey Lee (id:1262105)
      北凯·希思空关 Bella Heathcote (id:1316911)
      凶挠毪马隆 Jena Malone (id:1040982)
      卡我·格洛斯曼 Karl Glusman (id:1349161)
      戴斯受德·哈灵顿 Desmond Harrington (id:1027190)
      渴攀里斯蒂挠毪亨德里克斯 Christina Hendricks (id:1047880)
      基努·里维斯 Keanu Reeves (id:1008070)
      查我斯·痹铀 Charles Baker (id:1221276)
      杰米·渴攀莱顿 Jamie Clayton (id:1349878)
      史迪茜·丁泽 Stacey Danger (id:1361783)
      丽痹莹·达扬 Rebecca Dayan (id:1327513)
      海伦·威我森 Helen Wilson (id:1361784)
      侯达·史伦塔 Houda Shretah (id:1361785)
      泰勒·希我 Taylor Hill (id:1354901)
      查理子毪科顿 Charlize Cotton (id:1384356)
      科得埭蕾僧·卡梅伦 Cody Renee Cameron (id:1436147)
      亚历桑德罗·僧沃推 Alessandro Nivola (id:1009310)
      卡梅伦·布林克曼 Cameron Brinkman (id:1347738)
      渴攀里斯·穆托 Chris Muto (id:1252072)
      丽芙·考菲拷舡 Liv Corfixen (id:1069865)
      文森特·马推瓦我 Vincent Maraval (id:1338353)
      僧古推斯·温丁·雷弗恩 Nicolas Winding Refn (id:1027335)
      渴攀里妇·马丁内斯 Cliff Martinez (id:1005381)
      娜塔莎·布雷我 Natasha Braier (id:1304127)
      奥斯丁·格我 Austin Gorg (id:1368727)
      埃林·贝纳赫 Erin Benach (id:1408698)
      狄恩·琼斯 Dean Jones (id:1441544)
      乔治娅·弗勒 Georgia Fowler (id:1373244)
      Stacey Danger Stacey Danger (id:1384355)
      希俗 Sia (id:1240500)

◎标  签 惊悚 / 迷幻 / 好国 / 2016 / 法国 / 恐惧 / 丹麦 / 剧情

◎简  介
  斑斓女孩杰茜(艾丽·范宁ElleFanning饰)是一个单身度コ洛杉矶的年青女模特,她初度涉足十丈软红,看起去懵懂蒙昧,人畜有害。亲战的化装师茹比(凶挠毪马隆JenaMalone饰)开始靠近她,并将其引见给两个小著名气的模特琪琪(北凯·希思空关BellaHeathcote饰)取莎推(阿庇毪丽AbbeyLee饰)。杰茜好像一块储藏着莫年夜代价的璞玉,她很快获得了业内有识之士的欣赏,前路布满光辉。她的好是上天的赏赐,她的好却同样成为别人妒忌以致慢于消灭的懦弱之花。
T台之上,霓虹交织,杰茜逐步趋势梦的此岸,但是毫无所惧收缩的愿望取嫉恨也正将她淹没……

◎获奖状况 (共6项)
  第69届戛挠掮影节 (2016)
  主比赛单位 金棕榈奖(提名)
   └──僧古推斯·温丁·雷弗恩 (id:1027335)
  同道金棕榈奖(提名)
   └──僧古推斯·温丁·雷弗恩 (id:1027335)

  第15届华衰顿影评人协会奖 (2016)
  最好本创配乐(提名)

  第29届芝减哥影评人协会奖 (2016)
  最好本创配乐(提名)
   └──渴攀里妇·马丁内斯 (id:1005381)
  最好艺术指点(提名)

  第20届好国正在线影评人协会奖 (2017)
  最好拍照(提名)
   └──娜塔莎·布雷我 (id:1304127)
General
Unique ID : 292054704525309934550432100397602663863 (0xDBB7B0A95FCF6015A064E530AC016DB7)
Complete name : The.Neon.Demon.2016.2160p.HDR.UHD.BluRay.DTS-HD.MA.5.1.x265-10bit-HDS.mkv
Format : Matroska
Format version : Version 4
File size : 18.6 GiB
Duration : 1 h 57 min
Overall bit rate mode : Variable
Overall bit rate : 22.7 Mb/s
Movie name : The Neon Demon 2016 2160p HDR UHD BluRay DTS-HD MA 5.1 x265-10bit-HDS
Encoded date : UTC 2021-06-13 03:17:05
Writing application : mkvmerge v38.0.0 ('The Silent Type') 64-bit
Writing library : libebml v1.3.9 + libmatroska v1.5.2

Video
ID : 1
Format : HEVC
Format/Info : High Efficiency Video Coding
Format profile : Main 10@L5.1@High
HDR format : SMPTE ST 2086, HDR10 compatible
Codec ID : V_MPEGH/ISO/HEVC
Duration : 1 h 57 min
Bit rate : 20.9 Mb/s
Width : 3 840 pixels
Height : 2 160 pixels
Display aspect ratio : 16:9
Frame rate mode : Constant
Frame rate : 24.000 FPS
Color space : YUV
Chroma subsampling : 4:2:0
Bit depth : 10 bits
Bits/(Pixel*Frame) : 0.105
Stream size : 17.1 GiB (92%)
Title : veryzayin@HDSky
Writing library : x265 - H.265/HEVC codec
Default : Yes
Forced : No
Color range : Limited
Color primaries : BT.2020
Transfer characteristics : PQ
Matrix coefficients : BT.2020 non-constant
Mastering display color primaries : Display P3
Mastering display luminance : min: 0.0020 cd/m2, max: 1000 cd/m2
Maximum Content Light Level : 739 cd/m2
Maximum Frame-Average Light Level : 331 cd/m2

Audio
ID : 2
Format : DTS XLL
Format/Info : Digital Theater Systems
Commercial name : DTS-HD Master Audio
Codec ID : A_DTS
Duration : 1 h 57 min
Bit rate mode : Variable
Bit rate : 1 769 kb/s
Channel(s) : 6 channels
Channel layout : C L R Ls Rs LFE
Sampling rate : 48.0 kHz
Frame rate : 93.750 FPS (512 SPF)
Bit depth : 16 bits
Compression mode : Lossless
Stream size : 1.45 GiB (8%)
Title : English
Language : English
Default : Yes
Forced : No

Text #1
ID : 3
Format : PGS
Muxing mode : zlib
Codec ID : S_HDMV/PGS
Codec ID/Info : Picture based subtitle format used on BDs/HD-DVDs
Duration : 1 h 46 min
Bit rate : 10.6 kb/s
Count of elements : 1087
Stream size : 8.10 MiB (0%)
Title : CHS
Language : Chinese
Default : Yes
Forced : No

Text #2
ID : 4
Format : PGS
Muxing mode : zlib
Codec ID : S_HDMV/PGS
Codec ID/Info : Picture based subtitle format used on BDs/HD-DVDs
Duration : 1 h 46 min
Bit rate : 10.8 kb/s
Count of elements : 1087
Stream size : 8.25 MiB (0%)
Title : CHT
Language : Chinese
Default : No
Forced : No

Text #3
ID : 5
Format : PGS
Muxing mode : zlib
Codec ID : S_HDMV/PGS
Codec ID/Info : Picture based subtitle format used on BDs/HD-DVDs
Duration : 1 h 46 min
Bit rate : 19.0 kb/s
Count of elements : 1087
Stream size : 14.5 MiB (0%)
Title : CHS&ENG
Language : Chinese
Default : No
Forced : No

Text #4
ID : 6
Format : PGS
Muxing mode : zlib
Codec ID : S_HDMV/PGS
Codec ID/Info : Picture based subtitle format used on BDs/HD-DVDs
Duration : 1 h 46 min
Bit rate : 19.3 kb/s
Count of elements : 1087
Stream size : 14.7 MiB (0%)
Title : CHT&ENG
Language : Chinese
Default : No
Forced : No

Menu
00:00:00.000 : en:Chapter 01
00:07:00.000 : en:Chapter 02
00:19:42.000 : en:Chapter 03
00:30:07.000 : en:Chapter 04
00:39:02.000 : en:Chapter 05
00:50:10.000 : en:Chapter 06
00:58:56.000 : en:Chapter 07
01:08:53.000 : en:Chapter 08
01:17:08.000 : en:Chapter 09
01:24:11.000 : en:Chapter 10
01:33:33.000 : en:Chapter 11
01:40:39.000 : en:Chapter 12



旅客,假如您要检察本帖躲藏内容请复兴




上一篇:[2008][夺宝奇兵4][BD-MKV/19.51GB][国英语音轨+中文字幕][4K-2160P]
下一篇:[1989][夺宝奇兵3][BD-MKV/16.91GB][国英语音轨+中文字幕][4K-2160P]

精彩评论2

哥丶心狠痛 高级首粉 显示全部楼层 发表于 2021-6-28 08:21:29
楼主辛苦了,谢谢首发之家!!
dmtl 捐助会员 显示全部楼层 发表于 2021-7-24 13:10:29
楼主辛苦了,感谢首发之荚丁
您需要登录后才可以回帖 登录 | 立即注册 用百度帐号登录

本版积分规则

首发之家社区成立于2011年3月,内容涉及3C家电、数码生活智能电视,股票软件,4K,体育,软件,教育,游戏等资源指标公式论坛。
  • 官方手机版

  • 抖音号

  • 商务合作

  • Powered by Discuz! X3.4 | Copyright © 2011-2021, Tencent Cloud. | 首发之家社区
  • |网站地图 | mp4d@qq.com|小黑屋|手机版|