返回顶部
  • 发帖数3009
  • 粉丝35

此人很懒,什么也没有留下

  • 最佳新人

  • 活跃会员

    经常参与各类话题的讨论,发帖内容较有主见
  • 热心会员

    经常帮助其他会员答疑
  • 灌水之王

    经常在论坛发帖,且发帖量较大
  • 社区劳模

    长期对论坛的繁荣而不断努力,或发帖主题数500以上
  • 终身成就

    为论坛做出突出贡献的会员
  • 明星会员

    在论坛有很高知名度会员
  • 爆料达人

    发帖爆料达人
开启左侧

[动作] [1995][鼠胆龙威][WEB-MKV/5.64GB][国粤双语][2160P]

[复制链接]
shizhijie 狂热首粉 显示全部楼层 发表于 2021-6-11 00:52:36 |阅读模式 打印 上一主题 下一主题
5daa7bf4da68083acf8d2f3b23d44ed3.jpeg


◎译  名 鼠胆龙威 / High Risk / Meltdown / Terror en Hong Kong
◎片  名 鼠膽龍威
◎年  代 1995
◎产  天 止您喷鼻港
◎类  别 笑剧 / 行动 / 立功
◎语  行 粤语 / 汉语一般话 / 英语
◎上映日期 1995-07-01(止您喷鼻港)
◎IMDb评分  6.1/10 from 4005 users
◎IMDb链接  https://www.imdb.com/title/tt0114437
◎豆瓣评分 7.3/10 from 37134 users
◎豆瓣链接 https://movie.douban.com/subject/1295106/
◎片  少 101分钟
◎导  演 王晶 Jing Wong
◎编  剧 王晶 Jing Wong
◎主  演 李连杰 Jet Li
      张教友 Jacky Cheung
      邱淑贞 Chingmy Yau
      曹查理 Charlie Cho
      周比利 Billy Chow
      杨采妮 Charlie Yeung
      周嘉玲 Valerie Chow
      午马 Wu Ma
      李力持 Lik-Chi Lee
      王霄 Kelvin Wong
      闭秀丽 Suki Kwan
      蔡业疑 Raven Choi Yip-San
      段伟伦 William Duan
      卢雄 Paul Lo
      魏伯勤 Boqin Wei
      元德 Tak Yuen
      列喧斌 Ben Lam
      罗瓮寡 Wai-Kai Law

◎简  介  

  爆破专家李杰(李连杰 饰)一次果施行使命判定得误,亲眼目击妻女被活活炸逝世,悲伤欲尽辞来公职,一里寻觅杀逝世妻女的凶脚,一里假名斗胆,为天皇巨星龙威(张教友 饰)出日妫镖及替人,没有时为他表演流亡的镜头。除记得凶脚的声音以外,并没有别的线索。电视台掌管仁攀乐慧贞(邱淑贞 饰)对龙威的演出有所疑心,因而不吝昼夜随从跟随。龙威受邀参与一个年夜型珠宝博览会,自称大夫(王霄 饰)的强盗正筹谋偷取博览会钻饰,并派助脚墨菲(周嘉玲 饰)混进旅店当公闭做卧底。钻饰展篮帽日,李杰护收龙威参加后便分开,回家途忠杉然正在车上认出了大夫的声音,因而冒死返回狂逃强盗,归纳了一场存亡混战……

◎获奖状况  

  第32届台北金马影展(1995)
  金马奖 最好囊射角(提名) 张教友
  金马奖 最好行动设想(提名) 元德 / 元奎


  • Quote:


  • General

  • Unique ID                      : 303927337226321623373967942407813603309 (0xE4A646A5DA2F54E19A9E350971D81FED)

  • Complete name                  : High Risk 1995 WEB-DL 4K H265 HFR DTS 5.1 & DD 2.0 2Audios-Dave.mkv

  • Format                         : Matroska

  • Format version                 : Version 4

  • File size                      : 5.63 GiB

  • Duration                       : 1 h 36 min

  • Overall bit rate               : 8 317 kb/s

  • Encoded date                   : UTC 2021-06-08 13:15:50

  • Writing application            : mkvmerge v19.0.0 (‘Brave Captain‘) 64-bit

  • Writing library                : libebml v1.3.5 + libmatroska v1.4.8


  • Video

  • ID                             : 1

  • Format                         : HEVC

  • Format/Info                    : High Efficiency Video Coding

  • Format profile                 : Main@L6@Main

  • Codec ID                       : V_MPEGH/ISO/HEVC

  • Duration                       : 1 h 36 min

  • Bit rate                       : 7 161 kb/s

  • Width                          : 3 840 pixels

  • Height                         : 2 080 pixels

  • Display aspect ratio           : 1.85:1

  • Frame rate mode                : Constant

  • Frame rate                     : 50.000 FPS

  • Original frame rate            : 1 000.000 FPS

  • Color space                    : YUV

  • Chroma subsampling             : 4:2:0

  • Bit depth                      : 8 bits

  • Bits/(Pixel*Frame)             : 0.018

  • Stream size                    : 4.85 GiB (86%)

  • Writing library                : HW265_Code

  • Default                        : Yes

  • Forced                         : No


  • Audio #1

  • ID                             : 2

  • Format                         : AC-3

  • Format/Info                    : Audio Coding 3

  • Commercial name                : Dolby Digital

  • Codec ID                       : A_AC3

  • Duration                       : 1 h 36 min

  • Bit rate mode                  : Constant

  • Bit rate                       : 384 kb/s

  • Channel(s)                     : 2 channels

  • Channel layout                 : L R

  • Sampling rate                  : 48.0 kHz

  • Frame rate                     : 31.250 FPS (1536 SPF)

  • Compression mode               : Lossy

  • Stream size                    : 266 MiB (5%)

  • Title                          : DVD 国语

  • Language                       : Chinese

  • Service kind                   : Complete Main

  • Default                        : Yes

  • Forced                         : No


  • Audio #2

  • ID                             : 3

  • Format                         : DTS

  • Format/Info                    : Digital Theater Systems

  • Codec ID                       : A_DTS

  • Duration                       : 1 h 36 min

  • Bit rate mode                  : Constant

  • Bit rate                       : 768 kb/s

  • Channel(s)                     : 6 channels

  • Channel layout                 : C L R Ls Rs LFE

  • Sampling rate                  : 48.0 kHz

  • Frame rate                     : 93.750 FPS (512 SPF)

  • Bit depth                      : 24 bits

  • Compression mode               : Lossy

  • Stream size                    : 533 MiB (9%)

  • Title                          : DVD 粤语

  • Language                       : Chinese

  • Default                        : No

  • Forced                         : No

赶钙代码



3115d1866ea6a2cbf02133db42545860.png
a3c817796d22c965773b7d4c59d4b1f6.png
72ff13b35ac2f0a96e09b8744a204234.png


旅客,假如您要检察本帖躲藏内容请复兴




上一篇:[1999][人肉玩具][WEB-MKV/3.29GB][国粤双语][1080P]
下一篇:[2021][扫黑·决战​][WEB-MP4/3.77GB][国语中字][2160P]

精彩评论13

lixu111111 首发熟人 显示全部楼层 发表于 2021-6-11 06:11:39
楼主辛苦了,谢谢首发之家!!
shenfuiyan 首发熟人 显示全部楼层 发表于 2021-6-11 06:47:50
楼主辛苦了,谢谢首发之家!!
哥丶心狠痛 高级首粉 显示全部楼层 发表于 2021-6-11 08:11:04
楼主辛苦了,谢谢首发之家!!
付鹏_SzZmM 首发新人 显示全部楼层 发表于 2021-6-11 08:53:40
非常的期待
江河汇海潮 高级首粉 显示全部楼层 发表于 2021-6-11 09:48:48
楼主辛苦了,谢谢首发之家!!
shusheng5566 首发新人 显示全部楼层 发表于 2021-6-11 10:11:20
楼主辛苦了,谢谢首发之家!!
tvhaohao 首发之星 显示全部楼层 发表于 2021-6-11 13:08:26
首发之家不能没有像楼主这样的人才!
xiaochenge 首发熟人 显示全部楼层 发表于 2021-6-11 17:44:05
经典影片感谢分享
lu85548644 首发之星 显示全部楼层 发表于 2021-6-11 19:07:40
谢谢大神分享
您需要登录后才可以回帖 登录 | 立即注册 用百度帐号登录

本版积分规则

首发之家社区成立于2011年3月,内容涉及3C家电、数码生活智能电视,股票软件,4K,体育,软件,教育,游戏等资源指标公式论坛。
  • 官方手机版

  • 抖音号

  • 商务合作

  • Powered by Discuz! X3.4 | Copyright © 2011-2021, Tencent Cloud. | 首发之家社区
  • |网站地图 | mp4d@qq.com|小黑屋|手机版|