返回顶部
  • 发帖数3009
  • 粉丝35

此人很懒,什么也没有留下

  • 最佳新人

  • 活跃会员

    经常参与各类话题的讨论,发帖内容较有主见
  • 热心会员

    经常帮助其他会员答疑
  • 灌水之王

    经常在论坛发帖,且发帖量较大
  • 社区劳模

    长期对论坛的繁荣而不断努力,或发帖主题数500以上
  • 终身成就

    为论坛做出突出贡献的会员
  • 明星会员

    在论坛有很高知名度会员
  • 爆料达人

    发帖爆料达人
开启左侧

[恐怖] [1999][人肉玩具][WEB-MKV/3.29GB][国粤双语][1080P]

  [复制链接]
shizhijie 狂热首粉 显示全部楼层 发表于 2021-6-11 00:51:56 |阅读模式 打印 上一主题 下一主题
06c9025fb5e759d6822684b042547d3e.jpeg


◎译  名 A Lamb in Despair
◎片  名 人肉玩具
◎年  代 1999
◎产  天 止您喷鼻港
◎类  别 惊悚
◎语  行 粤语
◎上映日期 1999-08-12
◎IMDb评分  5.1/10 from 106 users
◎IMDb链接  https://www.imdb.com/title/tt0239549/
◎豆瓣评分 4.8/10 from 406 users
◎豆瓣链接 https://movie.douban.com/subject/19897609/
◎片  少 89分钟
◎导  演 蓝志伟 Francis Nam Chi-Wai
◎编  剧 梁鸿华 Tony Leung Hung-Wah / 蓝志伟 Francis Nam Chi-Wai
◎主  演 莫家尧 Ga Yiu Mok
      黄春死 Anthony Wong Chau-Sang
      姚乐怡 Sherming Yiu

◎简  介

  好藉华人胡子达涉嫌取朋友共谋虐杀了25人,胡却把杀妊棚名推到正在狱中他杀恋滥共谋身上后被递解出境。他回喷鼻港找一名已经协助过他的伴侣阿敏,同时,记者春为告竣本人的消息长处用计策令阿敏取胡会面,更操纵阿敏诱惑胡人性年夜收……


  • Quote:


  • General

  • Unique ID                      : 130165552610864668452695922835458676043 (0x61ECF93A944663201A9917725CA8D54B)

  • Complete name                  : A Lamb in Despair 1999 WEB-DL 1080P H265 AAC 2.0 & DD 2.0 3Audios-Dave.mkv

  • Format                         : Matroska

  • Format version                 : Version 4

  • File size                      : 3.29 GiB

  • Duration                       : 1 h 29 min

  • Overall bit rate               : 5 278 kb/s

  • Encoded date                   : UTC 2021-06-09 16:35:58

  • Writing application            : mkvmerge v19.0.0 (‘Brave Captain‘) 64-bit

  • Writing library                : libebml v1.3.5 + libmatroska v1.4.8


  • Video

  • ID                             : 1

  • Format                         : HEVC

  • Format/Info                    : High Efficiency Video Coding

  • Format profile                 : Main@L4@High

  • Codec ID                       : V_MPEGH/ISO/HEVC

  • Duration                       : 1 h 29 min

  • Bit rate                       : 4 504 kb/s

  • Width                          : 1 920 pixels

  • Height                         : 1 080 pixels

  • Display aspect ratio           : 16:9

  • Frame rate mode                : Constant

  • Frame rate                     : 24.000 FPS

  • Color space                    : YUV

  • Chroma subsampling             : 4:2:0

  • Bit depth                      : 8 bits

  • Bits/(Pixel*Frame)             : 0.091

  • Stream size                    : 2.81 GiB (85%)

  • Default                        : Yes

  • Forced                         : No


  • Audio #1

  • ID                             : 2

  • Format                         : AAC LC

  • Format/Info                    : Advanced Audio Codec Low Complexity

  • Codec ID                       : A_AAC-2

  • Duration                       : 1 h 29 min

  • Bit rate                       : 132 kb/s

  • Channel(s)                     : 2 channels

  • Channel layout                 : L R

  • Sampling rate                  : 44.1 kHz

  • Frame rate                     : 43.066 FPS (1024 SPF)

  • Compression mode               : Lossy

  • Stream size                    : 83.8 MiB (2%)

  • Title                          : 粤语

  • Language                       : Chinese

  • Default                        : Yes

  • Forced                         : No


  • Audio #2

  • ID                             : 3

  • Format                         : AC-3

  • Format/Info                    : Audio Coding 3

  • Commercial name                : Dolby Digital

  • Codec ID                       : A_AC3

  • Duration                       : 1 h 29 min

  • Bit rate mode                  : Constant

  • Bit rate                       : 320 kb/s

  • Channel(s)                     : 2 channels

  • Channel layout                 : L R

  • Sampling rate                  : 48.0 kHz

  • Frame rate                     : 31.250 FPS (1536 SPF)

  • Compression mode               : Lossy

  • Stream size                    : 204 MiB (6%)

  • Title                          : DVD 粤语

  • Language                       : Chinese

  • Service kind                   : Complete Main

  • Default                        : No

  • Forced                         : No


  • Audio #3

  • ID                             : 4

  • Format                         : AC-3

  • Format/Info                    : Audio Coding 3

  • Commercial name                : Dolby Digital

  • Codec ID                       : A_AC3

  • Duration                       : 1 h 29 min

  • Bit rate mode                  : Constant

  • Bit rate                       : 320 kb/s

  • Channel(s)                     : 2 channels

  • Channel layout                 : L R

  • Sampling rate                  : 48.0 kHz

  • Frame rate                     : 31.250 FPS (1536 SPF)

  • Compression mode               : Lossy

  • Stream size                    : 204 MiB (6%)

  • Title                          : DVD 国语

  • Language                       : Chinese

  • Service kind                   : Complete Main

  • Default                        : No

  • Forced                         : No

赶钙代码


d457449eeb148e87e4c50c07e57b2a55.png
505ae3c950fd2fa94a536f5959c5b14d.png
02b5ff70f89551478f84c2b37e440030.png
bc597b006902ccf701347688c5445ae2.png


旅客,假如您要检察本帖躲藏内容请复兴




上一篇:[1992][鬼打鬼之灵幻天师][WEB-MKV/3.23GB][国粤双语][1080P]
下一篇:[1995][鼠胆龙威][WEB-MKV/5.64GB][国粤双语][2160P]

精彩评论78

zzh3585 高级首粉 显示全部楼层 发表于 2021-6-11 05:07:43
楼主辛苦了,谢谢首发之家!!
lixu111111 首发熟人 显示全部楼层 发表于 2021-6-11 06:14:11
楼主辛苦了,谢谢首发之家!!
shenfuiyan 首发熟人 显示全部楼层 发表于 2021-6-11 06:47:15
楼主辛苦了,谢谢首发之家!!
哥丶心狠痛 高级首粉 显示全部楼层 发表于 2021-6-11 08:11:16
楼主辛苦了,谢谢首发之家!!
shaka 首发之星 显示全部楼层 发表于 2021-6-11 08:55:03
zxcvbnm在小陈v不能买
booeek 首发熟人 显示全部楼层 发表于 2021-6-11 09:06:11
好惊险的影片赶紧下
sunli19771122 高级首粉 显示全部楼层 发表于 2021-6-11 10:14:50
首发之家不能没有像楼主这样的人才!
lzgxs 首发之星 显示全部楼层 发表于 2021-6-11 10:22:57
楼主辛苦了,谢谢首发之家!!
您需要登录后才可以回帖 登录 | 立即注册 用百度帐号登录

本版积分规则

首发之家社区成立于2011年3月,内容涉及3C家电、数码生活智能电视,股票软件,4K,体育,软件,教育,游戏等资源指标公式论坛。
  • 官方手机版

  • 抖音号

  • 商务合作

  • Powered by Discuz! X3.4 | Copyright © 2011-2021, Tencent Cloud. | 首发之家社区
  • |网站地图 | mp4d@qq.com|小黑屋|手机版|