返回顶部
  • 发帖数3009
  • 粉丝35

此人很懒,什么也没有留下

  • 最佳新人

  • 活跃会员

    经常参与各类话题的讨论,发帖内容较有主见
  • 热心会员

    经常帮助其他会员答疑
  • 灌水之王

    经常在论坛发帖,且发帖量较大
  • 社区劳模

    长期对论坛的繁荣而不断努力,或发帖主题数500以上
  • 终身成就

    为论坛做出突出贡献的会员
  • 明星会员

    在论坛有很高知名度会员
  • 爆料达人

    发帖爆料达人
开启左侧

[恐怖] [1992][鬼打鬼之灵幻天师][WEB-MKV/3.23GB][国粤双语][1080P]

[复制链接]
shizhijie 狂热首粉 显示全部楼层 发表于 2021-6-11 00:51:13 |阅读模式 打印 上一主题 下一主题
1c97b7eef8b5043aeb0fe59fa17e5783.jpeg



◎译  名 Mad Mad Ghost / 捉鬼罗汉 / 鬼挨鬼之灵幻天师
◎片  名 鬼挨鬼之回起羽士
◎年  代 1992
◎产  天 止您喷鼻港
◎类  别 笑剧 / 行动 / 恐惧
◎语  行 粤语
◎上映日期 1992-11-13
◎IMDb评分  5.8/10 from 67 users
◎IMDb链接  https://www.imdb.com/title/tt0104460
◎豆瓣评分 6.9/10 from 8298 users
◎豆瓣链接 https://movie.douban.com/subject/1794401/
◎片  少 91 分钟
◎导  演 陈会毅 Billy Chan
◎主  演 聊英 Ching-Ying Lam
      沈威 Wai Shum
      罗慧娟 Jacqueline Law
      金十两 Sap-Yee Gam
      陈龙 Peter Chan Lung
      楼北光 Billy Lau
      Mandy Chan
      余绮霞 Dorothy Yu
      何沛东 Ricky Ho
      开伟杰 Wai-Kit Tse
      胡阅山 Wing-Keung Wu
      梁思浩 See-ho Leung
      吴启明 Kai-Ming Ng
      陈志文 Zhiwen Chen

◎简  介  

  羽士英叔(聊英 饰)襟怀开宗坐派之志,逐日率领五名门徒勤减建炼,他为人开阔,贫寒无一少物,不能不做看更去补助日用。英叔受人拜托,看管一座无人年夜宅,无处容身的师徒六人久住年夜宅当中。那座宅第中有冶清代鬼伉俪留驻,女鬼阿娟(罗慧娟 饰)饱受丈妇凌虐殴挨,英叔仗义脱手,将墓捻摈除,阿娟自此留正在其身旁,取五个门徒相处和谐。没有暂墓捻携同陪觅恩,英叔师徒年夜展能力再次驱鬼,阿娟亦一改受气形象,正在丈妇眼前眉飞色舞,尔后她日日共同寡门徒操练捉鬼之术。一伙本国乌社会份子获得谍报,得悉正在那座年夜宅内躲有大批回起,他们乔拆教堂职员进住,试希图害英叔等人,攫取回起……

Quote:

General
Unique ID                      : 53304898323067323787616540452266680035 (0x281A26658067AFC4257658282E4F9EE3)
Complete name                  : Mad Mad Ghost 1992 WEB-DL 1080P H264 AAC 2Audios-Dave.mkv
Format                         : Matroska
Format version                 : Version 4
File size                      : 3.23 GiB
Duration                       : 1 h 27 min
Overall bit rate               : 5 295 kb/s
Encoded date                   : UTC 2021-06-09 09:30:26
Writing application            : mkvmerge v19.0.0 (‘Brave Captain‘) 64-bit
Writing library                : libebml v1.3.5 + libmatroska v1.4.8

Video
ID                             : 1
Format                         : AVC
Format/Info                    : Advanced Video Codec
Format profile                 : High@L4
Format settings                : CABAC / 4 Ref Frames
Format settings, CABAC         : Yes
Format settings, Reference fra : 4 frames
Codec ID                       : V_MPEG4/ISO/AVC
Duration                       : 1 h 27 min
Bit rate                       : 5 037 kb/s
Width                          : 1 920 pixels
Height                         : 1 080 pixels
Display aspect ratio           : 16:9
Frame rate mode                : Variable
Frame rate                     : 25.000 FPS
Color space                    : YUV
Chroma subsampling             : 4:2:0
Bit depth                      : 8 bits
Scan type                      : Progressive
Bits/(Pixel*Frame)             : 0.097
Stream size                    : 3.08 GiB (95%)
Default                        : Yes
Forced                         : No

Audio #1
ID                             : 2
Format                         : AAC LC SBR
Format/Info                    : Advanced Audio Codec Low Complexity with Spectral Band Replication
Commercial name                : HE-AAC
Format settings                : Explicit
Codec ID                       : A_AAC-2
Duration                       : 1 h 27 min
Bit rate                       : 128 kb/s
Channel(s)                     : 2 channels
Channel layout                 : L R
Sampling rate                  : 48.0 kHz
Frame rate                     : 23.438 FPS (2048 SPF)
Compression mode               : Lossy
Stream size                    : 80.0 MiB (2%)
Title                          : 国语
Language                       : Chinese
Default                        : Yes
Forced                         : No

Audio #2
ID                             : 3
Format                         : AAC LC SBR
Format/Info                    : Advanced Audio Codec Low Complexity with Spectral Band Replication
Commercial name                : HE-AAC
Format settings                : Explicit
Codec ID                       : A_AAC-2
Duration                       : 1 h 27 min
Bit rate                       : 128 kb/s
Channel(s)                     : 2 channels
Channel layout                 : L R
Sampling rate                  : 48.0 kHz
Frame rate                     : 23.438 FPS (2048 SPF)
Compression mode               : Lossy
Delay relative to video        : 31 ms
Stream size                    : 80.0 MiB (2%)
Title                          : 粤语
Language                       : Chinese
Default                        : No
Forced                         : No

77629b312d14223005ea1fe799c4edb6.png
594b0ba50e9a5d3c6c955ac66e45cdb6.png
d5b588e838c0efa779ae28ee09a9e23a.png
旅客,假如您要检察本帖躲藏内容请复兴




上一篇:[1994][中南海保镖][WEB-MKV/9.66GB][国粤英3语.中文字幕][1080P]
下一篇:[1999][人肉玩具][WEB-MKV/3.29GB][国粤双语][1080P]

精彩评论9

zzh3585 高级首粉 显示全部楼层 发表于 2021-6-11 05:08:39
楼主辛苦了,谢谢首发之家!!
哥丶心狠痛 高级首粉 显示全部楼层 发表于 2021-6-11 08:11:46
楼主辛苦了,谢谢首发之家!!
霹雳街舞 高级首粉 显示全部楼层 发表于 2021-6-11 11:02:57
下载收藏了,希望是高清无水印版的
zhang76342 首发之星 实名认证  显示全部楼层 发表于 2021-6-11 11:47:23
楼主辛苦了,谢谢首发之家!!
jxsrchj 首发熟人 显示全部楼层 发表于 2021-6-18 08:51:00
鬼打鬼之灵幻天师
553140295 首发熟人 显示全部楼层 发表于 2021-6-18 20:35:34
我看不错噢,谢谢首发之家!
stephenzjc 高级首粉 显示全部楼层 发表于 2021-7-4 17:14:58
么有分,谁能送我点积分啊::>_<::
qwqw110 初来首发 显示全部楼层 发表于 2021-7-14 15:05:15
楼主辛苦了,谢谢首发之家!!

您需要登录后才可以回帖 登录 | 立即注册 用百度帐号登录

本版积分规则

首发之家社区成立于2011年3月,内容涉及3C家电、数码生活智能电视,股票软件,4K,体育,软件,教育,游戏等资源指标公式论坛。
  • 官方手机版

  • 抖音号

  • 商务合作

  • Powered by Discuz! X3.4 | Copyright © 2011-2021, Tencent Cloud. | 首发之家社区
  • |网站地图 | mp4d@qq.com|小黑屋|手机版|