返回顶部
  • 发帖数3009
  • 粉丝35

此人很懒,什么也没有留下

  • 最佳新人

  • 活跃会员

    经常参与各类话题的讨论,发帖内容较有主见
  • 热心会员

    经常帮助其他会员答疑
  • 灌水之王

    经常在论坛发帖,且发帖量较大
  • 社区劳模

    长期对论坛的繁荣而不断努力,或发帖主题数500以上
  • 终身成就

    为论坛做出突出贡献的会员
  • 明星会员

    在论坛有很高知名度会员
  • 爆料达人

    发帖爆料达人
开启左侧

[动作] [2021][活死人军团][WEB-MKV/5.82GB][英语中字][1080P]

  [复制链接]
shizhijie 狂热首粉 显示全部楼层 发表于 2021-5-23 11:32:16 |阅读模式 打印 上一主题 下一主题
dcc43e5458b588efdf2bb6f3ebfc96c6.jpg
◎译  名 活逝世人军团/Army of the Damned/没有逝世丧军(港)/亡灵雄师/亡者之师/僵尸军团/灭亡之师/灭亡军团/活尸雄师(台)
◎片  名 Army of the Dead
◎年  代 2021
◎产  天 好国
◎类  别 行动 / 科幻 / 恐惧
◎语  行 英语
◎上映日期 2021-05-14(好国) / 2021-05-21(好国收集)
◎IMDb评分  7.5/10 from 2250 users
◎IMDb链接  https://www.imdb.com/title/tt0993840/
◎豆瓣评分 /10 from 0 users
◎豆瓣链接 https://movie.douban.com/subject/3099221/
◎片  少 148分钟
◎导  演 扎克·施奈德 Zack Snyder
◎编  剧 扎克·施奈德 Zack Snyder / 卓庇毪哈罗德 Joby Harold / 开伊·哈顿 Shay Hatten
◎主  演 戴妇·巴蒂顺蟒 Dave Bautista
       艾推·珀内我 Ella Purnell
       安挠毪德推·雷古推 Ana de la Reguera
       马提亚斯·施维赫妇 Matthias Schweighöfer
       沤箔·阿娜泽德我 Nora Arnezeder
       实田广之 Hiroyuki Sanada
       劳我·卡斯提洛 Raúl Castillo
       迈克我·卡西迪 Michael Cassidy
       减瑞特·迪推胡特 Garret Dillahunt
       萨曼塔·若 Samantha Jo
       西奥·罗西 Theo Rossi
       欧玛瑞·哈德威克 Omari Hardwick
       泰格·诺塔洛 Tig Notaro
       洛推·玛汀内斯-康宁安 Lora Martinez-Cunningham
       里昂·痹铀维思 Lyon Beckwith
       萨推·明妮偶 Sarah Minnich
       切我西·埃德受森 Chelsea Edmundson
       迈克我·雷德·麦基 Michael Reid MacKay
       胡玛·库雷希 Huma Qureshi
       理查德·赛特伦 Richard Cetrone
       丹僧埃我·布鲁凶奥 Danielle Burgio
       瑞恩·沃森 Ryan Watson
       韦恩·达格利什 Wayne Dalglish
       莎伊挠毪瑞恩 Shayna Ryan
       戴维·鲍我斯 David Bowles
       乔恩·讲格推斯·雷僧 Jon Douglas Rainey
       减里·A·赫克 Gary A. Hecker
       斯蒂芬妮·希我 Stephanie Hill
       罗庇毪德推费勒 Robbie DeRaffele
       詹姆斯·凯迪 James Cady
       俗各布·布朗 Jacob Browne
       年夜卫·冯·罗姆 David Von Roehm
       费我北多·劳推 Fernando Lara
       蒂莫西·奥蒂斯 Timothy Otis
       薇·妮可西 V Nixie

◎标  签 丧尸 | 扎克·施奈德 | 丧尸片 | Netflix | 恐惧 | 科幻 | 好国 | 行动

◎简  介

  影片的故事发作正在丧尸危急发作的推斯维减斯,正在此时期,一位女子散结一群雇佣兵停止终极的打赌,冒险进进断绝区,以阻遏有史以去最年夜的劫案。


  • 援用

  • General

  • Unique ID                                : 34591784287686926991422428150023608325 (0x1A0622A44327120399B06A01DA245805)

  • Complete name                            : Army.of.the.Dead.2021.1080P.NF.WEB-DL.DDP5.1.Atmos.HDR.HEVC-SHOUFAZJ.mkv

  • Format                                   : Matroska

  • Format version                           : Version 4

  • File size                                : 5.81 GiB

  • Duration                                 : 2 h 28 min

  • Overall bit rate                         : 5 604 kb/s

  • Encoded date                             : UTC 2021-05-21 07:03:09

  • Writing application                      : mkvmerge v56.1.0 ('My Friend') 64-bit

  • Writing library                          : libebml v1.4.2 + libmatroska v1.6.4


  • Video

  • ID                                       : 1

  • Format                                   : HEVC

  • Format/Info                              : High Efficiency Video Coding

  • Format profile                           : Main 10@L4@Main

  • HDR format                               : SMPTE ST 2086, HDR10 compatible

  • Codec ID                                 : V_MPEGH/ISO/HEVC

  • Duration                                 : 2 h 26 min

  • Bit rate                                 : 4 893 kb/s

  • Width                                    : 1 920 pixels

  • Height                                   : 1 080 pixels

  • Display aspect ratio                     : 16:9

  • frame rate mode                          : Constant

  • frame rate                               : 24.000 FPS

  • Color space                              : YUV

  • Chroma subsampling                       : 4:2:0 (Type 2)

  • Bit depth                                : 10 bits

  • Bits/(Pixel*frame)                       : 0.098

  • Stream size                              : 5.01 GiB (86%)

  • Default                                  : Yes

  • Forced                                   : No

  • Color range                              : Limited

  • Color primaries                          : BT.2020

  • Transfer characteristics                 : PQ

  • Matrix coefficients                      : BT.2020 non-constant

  • Mastering display color primaries        : Display P3

  • Mastering display luminance              : min: 0.0001 cd/m2, max: 1000 cd/m2

  • Maximum Content Light Level              : 2473 cd/m2

  • Maximum frame-Average Light Level        : 596 cd/m2


  • Audio

  • ID                                       : 2

  • Format                                   : E-AC-3 JOC

  • Format/Info                              : Enhanced AC-3 with Joint object Coding

  • Commercial name                          : Dolby Digital Plus with Dolby Atmos

  • Codec ID                                 : A_EAC3

  • Duration                                 : 2 h 28 min

  • Bit rate mode                            : Constant

  • Bit rate                                 : 768 kb/s

  • Channel(s)                               : 6 channels

  • Channel layout                           : L R C LFE Ls Rs

  • Sampling rate                            : 48.0 kHz

  • frame rate                               : 31.250 FPS (1536 SPF)

  • Compression mode                         : Lossy

  • Stream size                              : 815 MiB (14%)

  • title                                    : English

  • Language                                 : English

  • Service kind                             : Complete Main

  • Default                                  : No

  • Forced                                   : No

  • Complexity index                         : 16

  • Number of dynamic objects                : 15

  • Bed channel count                        : 1 channel

  • Bed channel configuration                : LFE


  • Text #1

  • ID                                       : 3

  • Format                                   : UTF-8

  • Codec ID                                 : S_TEXT/UTF8

  • Codec ID/Info                            : UTF-8 Plain Text

  • Duration                                 : 2 h 23 min

  • Bit rate                                 : 55 b/s

  • Count of elements                        : 1992

  • Stream size                              : 59.0 KiB (0%)

  • title                                    : English [CC]

  • Language                                 : English

  • Default                                  : No

  • Forced                                   : No


  • Text #2

  • ID                                       : 4

  • Format                                   : UTF-8

  • Codec ID                                 : S_TEXT/UTF8

  • Codec ID/Info                            : UTF-8 Plain Text

  • Duration                                 : 2 h 26 min

  • Bit rate                                 : 36 b/s

  • Count of elements                        : 1381

  • Stream size                              : 39.0 KiB (0%)

  • title                                    : German

  • Language                                 : German

  • Default                                  : No

  • Forced                                   : No


  • Text #3

  • ID                                       : 5

  • Format                                   : UTF-8

  • Codec ID                                 : S_TEXT/UTF8

  • Codec ID/Info                            : UTF-8 Plain Text

  • Duration                                 : 2 h 26 min

  • Bit rate                                 : 37 b/s

  • Count of elements                        : 1411

  • Stream size                              : 40.3 KiB (0%)

  • title                                    : Japanese

  • Language                                 : Japanese

  • Default                                  : No

  • Forced                                   : No


  • Text #4

  • ID                                       : 6

  • Format                                   : UTF-8

  • Codec ID                                 : S_TEXT/UTF8

  • Codec ID/Info                            : UTF-8 Plain Text

  • Duration                                 : 2 h 26 min

  • Bit rate                                 : 60 b/s

  • Count of elements                        : 1436

  • Stream size                              : 64.7 KiB (0%)

  • title                                    : Greek

  • Language                                 : Greek

  • Default                                  : No

  • Forced                                   : No


  • Text #5

  • ID                                       : 7

  • Format                                   : UTF-8

  • Codec ID                                 : S_TEXT/UTF8

  • Codec ID/Info                            : UTF-8 Plain Text

  • Duration                                 : 2 h 25 min

  • Bit rate                                 : 64 b/s

  • Count of elements                        : 2149

  • Stream size                              : 68.7 KiB (0%)

  • title                                    : German [CC]

  • Language                                 : German

  • Default                                  : No

  • Forced                                   : No


  • Text #6

  • ID                                       : 8

  • Format                                   : UTF-8

  • Codec ID                                 : S_TEXT/UTF8

  • Codec ID/Info                            : UTF-8 Plain Text

  • Duration                                 : 2 h 26 min

  • Bit rate                                 : 35 b/s

  • Count of elements                        : 1413

  • Stream size                              : 37.6 KiB (0%)

  • title                                    : Hungarian

  • Language                                 : Hungarian

  • Default                                  : No

  • Forced                                   : No


  • Text #7

  • ID                                       : 9

  • Format                                   : UTF-8

  • Codec ID                                 : S_TEXT/UTF8

  • Codec ID/Info                            : UTF-8 Plain Text

  • Duration                                 : 2 h 26 min

  • Bit rate                                 : 36 b/s

  • Count of elements                        : 1421

  • Stream size                              : 38.6 KiB (0%)

  • title                                    : Spanish

  • Language                                 : Spanish

  • Default                                  : No

  • Forced                                   : No


  • Text #8

  • ID                                       : 10

  • Format                                   : UTF-8

  • Codec ID                                 : S_TEXT/UTF8

  • Codec ID/Info                            : UTF-8 Plain Text

  • Duration                                 : 2 h 19 min

  • Bit rate                                 : 49 b/s

  • Count of elements                        : 1752

  • Stream size                              : 50.3 KiB (0%)

  • title                                    : Italian [CC]

  • Language                                 : Italian

  • Default                                  : No

  • Forced                                   : No


  • Text #9

  • ID                                       : 11

  • Format                                   : UTF-8

  • Codec ID                                 : S_TEXT/UTF8

  • Codec ID/Info                            : UTF-8 Plain Text

  • Duration                                 : 2 h 26 min

  • Bit rate                                 : 45 b/s

  • Count of elements                        : 1473

  • Stream size                              : 48.8 KiB (0%)

  • title                                    : Korean

  • Language                                 : Korean

  • Default                                  : No

  • Forced                                   : No


  • Text #10

  • ID                                       : 12

  • Format                                   : UTF-8

  • Codec ID                                 : S_TEXT/UTF8

  • Codec ID/Info                            : UTF-8 Plain Text

  • Duration                                 : 2 h 26 min

  • Bit rate                                 : 38 b/s

  • Count of elements                        : 1455

  • Stream size                              : 41.2 KiB (0%)

  • title                                    : Chinese Simplified

  • Language                                 : Chinese

  • Default                                  : No

  • Forced                                   : No


  • Text #11

  • ID                                       : 13

  • Format                                   : UTF-8

  • Codec ID                                 : S_TEXT/UTF8

  • Codec ID/Info                            : UTF-8 Plain Text

  • Duration                                 : 2 h 26 min

  • Bit rate                                 : 34 b/s

  • Count of elements                        : 1364

  • Stream size                              : 36.9 KiB (0%)

  • title                                    : European Spanish

  • Language                                 : Spanish

  • Default                                  : No

  • Forced                                   : No


  • Text #12

  • ID                                       : 14

  • Format                                   : UTF-8

  • Codec ID                                 : S_TEXT/UTF8

  • Codec ID/Info                            : UTF-8 Plain Text

  • Duration                                 : 2 h 23 min

  • Bit rate                                 : 46 b/s

  • Count of elements                        : 1727

  • Stream size                              : 49.2 KiB (0%)

  • title                                    : Spanish [CC]

  • Language                                 : Spanish

  • Default                                  : No

  • Forced                                   : No


  • Text #13

  • ID                                       : 15

  • Format                                   : UTF-8

  • Codec ID                                 : S_TEXT/UTF8

  • Codec ID/Info                            : UTF-8 Plain Text

  • Duration                                 : 2 h 26 min

  • Bit rate                                 : 36 b/s

  • Count of elements                        : 1373

  • Stream size                              : 38.8 KiB (0%)

  • title                                    : Swedish

  • Language                                 : Swedish

  • Default                                  : No

  • Forced                                   : No


  • Text #14

  • ID                                       : 16

  • Format                                   : UTF-8

  • Codec ID                                 : S_TEXT/UTF8

  • Codec ID/Info                            : UTF-8 Plain Text

  • Duration                                 : 2 h 26 min

  • Bit rate                                 : 35 b/s

  • Count of elements                        : 1350

  • Stream size                              : 38.2 KiB (0%)

  • title                                    : Norwegian Bokmal

  • Language                                 : Norwegian Bokmal

  • Default                                  : No

  • Forced                                   : No


  • Text #15

  • ID                                       : 17

  • Format                                   : UTF-8

  • Codec ID                                 : S_TEXT/UTF8

  • Codec ID/Info                            : UTF-8 Plain Text

  • Duration                                 : 2 h 25 min

  • Bit rate                                 : 33 b/s

  • Count of elements                        : 1447

  • Stream size                              : 35.6 KiB (0%)

  • title                                    : Croatian

  • Language                                 : Croatian

  • Default                                  : No

  • Forced                                   : No


  • Text #16

  • ID                                       : 18

  • Format                                   : UTF-8

  • Codec ID                                 : S_TEXT/UTF8

  • Codec ID/Info                            : UTF-8 Plain Text

  • Duration                                 : 2 h 26 min

  • Bit rate                                 : 33 b/s

  • Count of elements                        : 1225

  • Stream size                              : 35.6 KiB (0%)

  • title                                    : Dutch

  • Language                                 : Dutch

  • Default                                  : No

  • Forced                                   : No


  • Text #17

  • ID                                       : 19

  • Format                                   : UTF-8

  • Codec ID                                 : S_TEXT/UTF8

  • Codec ID/Info                            : UTF-8 Plain Text

  • Duration                                 : 2 h 26 min

  • Bit rate                                 : 51 b/s

  • Count of elements                        : 1422

  • Stream size                              : 54.7 KiB (0%)

  • title                                    : Vietnamese

  • Language                                 : Vietnamese

  • Default                                  : No

  • Forced                                   : No


  • Text #18

  • ID                                       : 20

  • Format                                   : UTF-8

  • Codec ID                                 : S_TEXT/UTF8

  • Codec ID/Info                            : UTF-8 Plain Text

  • Duration                                 : 2 h 26 min

  • Bit rate                                 : 95 b/s

  • Count of elements                        : 1454

  • Stream size                              : 102 KiB (0%)

  • title                                    : Thai

  • Language                                 : Thai

  • Default                                  : No

  • Forced                                   : No


  • Text #19

  • ID                                       : 21

  • Format                                   : UTF-8

  • Codec ID                                 : S_TEXT/UTF8

  • Codec ID/Info                            : UTF-8 Plain Text

  • Duration                                 : 2 h 26 min

  • Bit rate                                 : 34 b/s

  • Count of elements                        : 1444

  • Stream size                              : 37.0 KiB (0%)

  • title                                    : Indonesian

  • Language                                 : Indonesian

  • Default                                  : No

  • Forced                                   : No


  • Text #20

  • ID                                       : 22

  • Format                                   : UTF-8

  • Codec ID                                 : S_TEXT/UTF8

  • Codec ID/Info                            : UTF-8 Plain Text

  • Duration                                 : 2 h 26 min

  • Bit rate                                 : 35 b/s

  • Count of elements                        : 1401

  • Stream size                              : 37.7 KiB (0%)

  • title                                    : Italian

  • Language                                 : Italian

  • Default                                  : No

  • Forced                                   : No


  • Text #21

  • ID                                       : 23

  • Format                                   : UTF-8

  • Codec ID                                 : S_TEXT/UTF8

  • Codec ID/Info                            : UTF-8 Plain Text

  • Duration                                 : 2 h 26 min

  • Bit rate                                 : 33 b/s

  • Count of elements                        : 1340

  • Stream size                              : 36.3 KiB (0%)

  • title                                    : Danish

  • Language                                 : Danish

  • Default                                  : No

  • Forced                                   : No


  • Text #22

  • ID                                       : 24

  • Format                                   : UTF-8

  • Codec ID                                 : S_TEXT/UTF8

  • Codec ID/Info                            : UTF-8 Plain Text

  • Duration                                 : 17 s 584 ms

  • Bit rate                                 : 104 b/s

  • Count of elements                        : 7

  • Stream size                              : 230 Bytes (0%)

  • title                                    : English [Forced]

  • Language                                 : English

  • Default                                  : No

  • Forced                                   : Yes


  • Text #23

  • ID                                       : 25

  • Format                                   : UTF-8

  • Codec ID                                 : S_TEXT/UTF8

  • Codec ID/Info                            : UTF-8 Plain Text

  • Duration                                 : 2 h 23 min

  • Bit rate                                 : 50 b/s

  • Count of elements                        : 1878

  • Stream size                              : 53.0 KiB (0%)

  • title                                    : Brazilian Portuguese [CC]

  • Language                                 : Portuguese

  • Default                                  : No

  • Forced                                   : No


  • Text #24

  • ID                                       : 26

  • Format                                   : UTF-8

  • Codec ID                                 : S_TEXT/UTF8

  • Codec ID/Info                            : UTF-8 Plain Text

  • Duration                                 : 2 h 26 min

  • Bit rate                                 : 35 b/s

  • Count of elements                        : 1367

  • Stream size                              : 37.8 KiB (0%)

  • title                                    : Finnish

  • Language                                 : Finnish

  • Default                                  : No

  • Forced                                   : No


  • Text #25

  • ID                                       : 27

  • Format                                   : UTF-8

  • Codec ID                                 : S_TEXT/UTF8

  • Codec ID/Info                            : UTF-8 Plain Text

  • Duration                                 : 2 h 26 min

  • Bit rate                                 : 58 b/s

  • Count of elements                        : 1446

  • Stream size                              : 62.3 KiB (0%)

  • title                                    : Ukrainian

  • Language                                 : Ukrainian

  • Default                                  : No

  • Forced                                   : No


  • Text #26

  • ID                                       : 28

  • Format                                   : UTF-8

  • Codec ID                                 : S_TEXT/UTF8

  • Codec ID/Info                            : UTF-8 Plain Text

  • Duration                                 : 2 h 23 min

  • Bit rate                                 : 53 b/s

  • Count of elements                        : 1844

  • Stream size                              : 56.4 KiB (0%)

  • title                                    : French [CC]

  • Language                                 : French

  • Default                                  : No

  • Forced                                   : No


  • Text #27

  • ID                                       : 29

  • Format                                   : UTF-8

  • Codec ID                                 : S_TEXT/UTF8

  • Codec ID/Info                            : UTF-8 Plain Text

  • Duration                                 : 2 h 26 min

  • Bit rate                                 : 60 b/s

  • Count of elements                        : 1403

  • Stream size                              : 65.2 KiB (0%)

  • title                                    : Hebrew

  • Language                                 : Hebrew

  • Default                                  : No

  • Forced                                   : No


  • Text #28

  • ID                                       : 30

  • Format                                   : UTF-8

  • Codec ID                                 : S_TEXT/UTF8

  • Codec ID/Info                            : UTF-8 Plain Text

  • Duration                                 : 2 h 26 min

  • Bit rate                                 : 36 b/s

  • Count of elements                        : 1309

  • Stream size                              : 39.3 KiB (0%)

  • title                                    : French

  • Language                                 : French

  • Default                                  : No

  • Forced                                   : No


  • Text #29

  • ID                                       : 31

  • Format                                   : UTF-8

  • Codec ID                                 : S_TEXT/UTF8

  • Codec ID/Info                            : UTF-8 Plain Text

  • Duration                                 : 2 h 26 min

  • Bit rate                                 : 35 b/s

  • Count of elements                        : 1463

  • Stream size                              : 38.4 KiB (0%)

  • title                                    : Brazilian Portuguese

  • Language                                 : Portuguese

  • Default                                  : No

  • Forced                                   : No


  • Text #30

  • ID                                       : 32

  • Format                                   : UTF-8

  • Codec ID                                 : S_TEXT/UTF8

  • Codec ID/Info                            : UTF-8 Plain Text

  • Duration                                 : 2 h 26 min

  • Bit rate                                 : 59 b/s

  • Count of elements                        : 1447

  • Stream size                              : 63.5 KiB (0%)

  • title                                    : Russian

  • Language                                 : Russian

  • Default                                  : No

  • Forced                                   : No


  • Text #31

  • ID                                       : 33

  • Format                                   : UTF-8

  • Codec ID                                 : S_TEXT/UTF8

  • Codec ID/Info                            : UTF-8 Plain Text

  • Duration                                 : 2 h 26 min

  • Bit rate                                 : 30 b/s

  • Count of elements                        : 1403

  • Stream size                              : 32.6 KiB (0%)

  • title                                    : Polish

  • Language                                 : Polish

  • Default                                  : No

  • Forced                                   : No


  • Text #32

  • ID                                       : 34

  • Format                                   : UTF-8

  • Codec ID                                 : S_TEXT/UTF8

  • Codec ID/Info                            : UTF-8 Plain Text

  • Duration                                 : 2 h 26 min

  • Bit rate                                 : 37 b/s

  • Count of elements                        : 1310

  • Stream size                              : 39.6 KiB (0%)

  • title                                    : Turkish

  • Language                                 : Turkish

  • Default                                  : No

  • Forced                                   : No


  • Text #33

  • ID                                       : 35

  • Format                                   : UTF-8

  • Codec ID                                 : S_TEXT/UTF8

  • Codec ID/Info                            : UTF-8 Plain Text

  • Duration                                 : 2 h 26 min

  • Bit rate                                 : 35 b/s

  • Count of elements                        : 1448

  • Stream size                              : 38.2 KiB (0%)

  • title                                    : Portuguese

  • Language                                 : Portuguese

  • Default                                  : No

  • Forced                                   : No


  • Text #34

  • ID                                       : 36

  • Format                                   : UTF-8

  • Codec ID                                 : S_TEXT/UTF8

  • Codec ID/Info                            : UTF-8 Plain Text

  • Duration                                 : 2 h 23 min

  • Bit rate                                 : 132 b/s

  • Count of elements                        : 1842

  • Stream size                              : 140 KiB (0%)

  • title                                    : Hindi [CC]

  • Language                                 : Hindi

  • Default                                  : No

  • Forced                                   : No


  • Text #35

  • ID                                       : 37

  • Format                                   : UTF-8

  • Codec ID                                 : S_TEXT/UTF8

  • Codec ID/Info                            : UTF-8 Plain Text

  • Duration                                 : 2 h 26 min

  • Bit rate                                 : 72 b/s

  • Count of elements                        : 1460

  • Stream size                              : 77.9 KiB (0%)

  • title                                    : Arabic

  • Language                                 : Arabic

  • Default                                  : No

  • Forced                                   : No


  • Text #36

  • ID                                       : 38

  • Format                                   : UTF-8

  • Codec ID                                 : S_TEXT/UTF8

  • Codec ID/Info                            : UTF-8 Plain Text

  • Duration                                 : 2 h 26 min

  • Bit rate                                 : 33 b/s

  • Count of elements                        : 1445

  • Stream size                              : 35.8 KiB (0%)

  • title                                    : Malay

  • Language                                 : Malay

  • Default                                  : No

  • Forced                                   : No


  • Text #37

  • ID                                       : 39

  • Format                                   : UTF-8

  • Codec ID                                 : S_TEXT/UTF8

  • Codec ID/Info                            : UTF-8 Plain Text

  • Duration                                 : 2 h 26 min

  • Bit rate                                 : 35 b/s

  • Count of elements                        : 1448

  • Stream size                              : 38.3 KiB (0%)

  • title                                    : Czech

  • Language                                 : Czech

  • Default                                  : No

  • Forced                                   : No


  • Text #38

  • ID                                       : 40

  • Format                                   : UTF-8

  • Codec ID                                 : S_TEXT/UTF8

  • Codec ID/Info                            : UTF-8 Plain Text

  • Duration                                 : 2 h 26 min

  • Bit rate                                 : 40 b/s

  • Count of elements                        : 1299

  • Stream size                              : 42.8 KiB (0%)

  • title                                    : Romanian

  • Language                                 : Romanian

  • Default                                  : No

  • Forced                                   : No


  • Text #39

  • ID                                       : 41

  • Format                                   : UTF-8

  • Codec ID                                 : S_TEXT/UTF8

  • Codec ID/Info                            : UTF-8 Plain Text

  • Duration                                 : 2 h 26 min

  • Bit rate                                 : 38 b/s

  • Count of elements                        : 1529

  • Stream size                              : 41.5 KiB (0%)

  • title                                    : Chinese Traditional

  • Language                                 : Chinese

  • Default                                  : No

  • Forced                                   : No

b291937c6bb3f5ba5ac43f14f6d81185.jpg
07ff1e3e3e1bec4979eeb9665570b2da.jpg
932c5c532f5e0ddbffe121a68c1218d3.jpg
e8a36016eb7d75f2c8ef9fee8237465a.jpg
7347e81f1b2109220951dda92b89183d.jpg
56da46898efcf3d6adcb36f44aa326b7.jpg


旅客,假如您要检察本帖躲藏内容请复兴




上一篇:[2015][焦点/决胜焦点(台)][BD-MKV/4.9GB][英语简英.繁英.简繁字幕][1080P]
下一篇:[2006][火线对峙/虎胆狙击][BD-MKV/7G][英语中字][1080P]

精彩评论95

aa3741113 首发之星 显示全部楼层 发表于 2021-5-23 12:28:36
sdfs斯蒂芬森发爽肤水地方斯蒂芬
wx_tjAaU21o 首发熟人 显示全部楼层 发表于 2021-5-23 12:36:48
置顶置顶置顶置顶置顶置顶置顶置顶
jamtao 首发熟人 显示全部楼层 发表于 2021-5-23 15:48:17
楼主辛苦了,谢谢首发之家!!
zxfly_zx 首发熟人 显示全部楼层 发表于 2021-5-23 15:58:53
近期难得大片 看看啥样····
capcomlee 高级首粉 显示全部楼层 发表于 2021-5-23 16:18:12
楼主辛苦了,谢谢首发之家!!
jk1200p 首发新人 显示全部楼层 发表于 2021-5-23 16:38:15
楼主辛苦了,谢谢首发之家!!
Veyron 首发之星 显示全部楼层 发表于 2021-5-23 16:47:08
楼主辛苦了,谢谢首发之家!!

cjy7661 首发之星 显示全部楼层 发表于 2021-5-23 16:49:20

楼主辛苦了,谢谢首发之家!
您需要登录后才可以回帖 登录 | 立即注册 用百度帐号登录

本版积分规则

首发之家社区成立于2011年3月,内容涉及3C家电、数码生活智能电视,股票软件,4K,体育,软件,教育,游戏等资源指标公式论坛。
  • 官方手机版

  • 抖音号

  • 商务合作

  • Powered by Discuz! X3.4 | Copyright © 2011-2021, Tencent Cloud. | 首发之家社区
  • |网站地图 | mp4d@qq.com|小黑屋|手机版|