返回顶部
  • 发帖数3009
  • 粉丝35

此人很懒,什么也没有留下

  • 最佳新人

  • 活跃会员

    经常参与各类话题的讨论,发帖内容较有主见
  • 热心会员

    经常帮助其他会员答疑
  • 灌水之王

    经常在论坛发帖,且发帖量较大
  • 社区劳模

    长期对论坛的繁荣而不断努力,或发帖主题数500以上
  • 终身成就

    为论坛做出突出贡献的会员
  • 明星会员

    在论坛有很高知名度会员
  • 爆料达人

    发帖爆料达人
开启左侧

[喜剧] [2021][我的姐姐][WEB-DL-MKV/15.3GB][国语中字][2160P]

  [复制链接]
shizhijie 狂热首粉 显示全部楼层 发表于 2021-5-21 20:56:16 |阅读模式 打印 上一主题 下一主题
4cc68707fd96e3761c7912ad689a707c.jpg

◎译  名 Sister / 踢皮球
◎片  名 我的姐姐
◎年  代 2021
◎产  天 止您年夜陆
◎类  别 剧情 / 家庭
◎语  行 汉语一般话 / 四川话
◎上映日期 2021-04-02(止您年夜陆)
◎IMDb评分  6.8/10 from 103 users
◎豆瓣评分 7.1/10 from 197778 users
◎片  少 127分钟
◎导  演 殷若昕 Ruoxin Yin
◎编  剧 游晓颖 Xiaoying You
◎主  演 杖佑枫 Zifeng Zhang
      肖央 Yang Xiao
      墨媛媛 Yuanyuan Zhu
      段专文 Bowen Duan
      梁靖康 Jingkang Liang
      金远源 Darren Yowon Kim
      王圣迪 Shengdi Wang
      孙嘉灵 Jialing Sun
      陈永胜 Yongsheng Chen
      朴紧日 Songri Piao

◎简  介  

  影片环绕落空怙恃的姐姐正在面临寻求小我私家自力糊口仍是抚育弟弟的成绩上睁开了冶细致动人的亲情故事。

Quote:

General
Unique ID                      : 277541947628767421621315634686472878806 (0xD0CCA280B11429A013367FA29FB5FAD6)
Complete name                  : Sister 2021 WEB-DL 4K H265 DDP 5.1-Dave.mkv
Format                         : Matroska
Format version                 : Version 4
File size                      : 15.3 GiB
Duration                       : 2 h 6 min
Overall bit rate               : 17.3 Mb/s
Encoded date                   : UTC 2021-05-20 08:22:16
Writing application            : mkvmerge v19.0.0 (‘Brave Captain‘) 64-bit
Writing library                : libebml v1.3.5 + libmatroska v1.4.8

Video
ID                             : 1
Format                         : HEVC
Format/Info                    : High Efficiency Video Coding
Format profile                 : Main@L5@High
Codec ID                       : V_MPEGH/ISO/HEVC
Duration                       : 2 h 6 min
Bit rate                       : 16.9 Mb/s
Width                          : 3 840 pixels
Height                         : 1 616 pixels
Display aspect ratio           : 2.40:1
Frame rate mode                : Constant
Frame rate                     : 24.000 FPS
Color space                    : YUV
Chroma subsampling             : 4:2:0
Bit depth                      : 8 bits
Bits/(Pixel*Frame)             : 0.113
Stream size                    : 14.9 GiB (97%)
Default                        : Yes
Forced                         : No

Audio #1
ID                             : 2
Format                         : E-AC-3
Format/Info                    : Enhanced AC-3
Commercial name                : Dolby Digital Plus
Codec ID                       : A_EAC3
Duration                       : 2 h 6 min
Bit rate mode                  : Constant
Bit rate                       : 256 kb/s
Channel(s)                     : 6 channels
Channel layout                 : L R C LFE Ls Rs
Sampling rate                  : 48.0 kHz
Frame rate                     : 31.250 FPS (1536 SPF)
Compression mode               : Lossy
Stream size                    : 232 MiB (1%)
Title                          : 国语 DDP 5.1
Language                       : Chinese
Service kind                   : Complete Main
Default                        : Yes
Forced                         : No

Audio #2
ID                             : 3
Format                         : AAC LC
Format/Info                    : Advanced Audio Codec Low Complexity
Codec ID                       : A_AAC-2
Duration                       : 2 h 6 min
Bit rate                       : 192 kb/s
Channel(s)                     : 2 channels
Channel layout                 : L R
Sampling rate                  : 44.1 kHz
Frame rate                     : 43.066 FPS (1024 SPF)
Compression mode               : Lossy
Stream size                    : 172 MiB (1%)
Title                          : 国语 AAC 2.0
Language                       : Chinese
Default                        : No
Forced                         : No
bdfdb3944c9a99752a34cc05e823c418.jpg
d6b588f3a2ee44082da6b96da27b7ae7.jpg
27d7a83b6d4378b5b0d0eed6e3aba3ea.jpg


旅客,假如您要检察本帖躲藏内容请复兴




上一篇:[2019][哥斯拉2:怪兽之王][BD-MKV/15.56G][国台英三语/特效中英字幕][2160P/4K]
下一篇:[2021][寻龙传说][BD-MKV/16.3GB][简繁中文字幕][2160P]

精彩评论79

wx_x45ZyHH4 首发新人 显示全部楼层 发表于 2021-5-21 23:38:05
是啛啛喳喳错错错错错错错错错
江河汇海潮 高级首粉 显示全部楼层 发表于 2021-5-22 09:54:24
楼主辛苦了,谢谢首发之家!!
845589560 首发之星 显示全部楼层 发表于 2021-5-22 10:09:50
的手动手动手动发送是的
哥丶心狠痛 高级首粉 显示全部楼层 发表于 2021-5-22 10:30:36
楼主辛苦了,谢谢首发之家!!
诸葛_MtJvs 首发新人 显示全部楼层 发表于 2021-5-22 16:05:10
楼主辛苦了,谢谢首发之家!!
gaoqingsun 首发熟人 显示全部楼层 发表于 2021-5-22 17:51:02
好看吗?各大软件都有这个
zx65899858 首发新人 显示全部楼层 发表于 2021-5-22 19:28:25

楼主辛苦了,谢谢首发之家!!
gg1981 首发新人 显示全部楼层 发表于 2021-5-22 19:50:29
楼主辛苦了,谢谢首发之家!!
您需要登录后才可以回帖 登录 | 立即注册 用百度帐号登录

本版积分规则

首发之家社区成立于2011年3月,内容涉及3C家电、数码生活智能电视,股票软件,4K,体育,软件,教育,游戏等资源指标公式论坛。
  • 官方手机版

  • 抖音号

  • 商务合作

  • Powered by Discuz! X3.4 | Copyright © 2011-2021, Tencent Cloud. | 首发之家社区
  • |网站地图 | mp4d@qq.com|小黑屋|手机版|